Aktualizacje seriali
 



Ogłoszenia
UFS - dotacje
Dotacje SMS
Jak korzystać z forumowej szukajki



Pokaż wyniki od 1 do 2 z 2

Wątek: House of Cards [sezon 2][2014][WEBRip][720p][x264][AC3][LEK-PL]

  1. #1
    Retired Awatar Look
     Informacje : 
    Dołączył
    Jan 2008
    Posty
    4,309
     Statystyki uploadów : 
    Filmy
    595
    Gry
    59
    Programy
    1
    Seriale
    72
    Muzyka
    13
    Porno
    1
    Inne
    4
     Łączny upload : 
    P2M UP
    2456.2 GB
     Zapostowane konta : 
    Total CA
    8670
     Podziękowania : 
    Podziękował: 974
    Doceniono: 20,199 razy w 324 postach
    Look jest nieaktywny

    m4ud House of Cards [sezon 2][2014][WEBRip][720p][x264][AC3][LEK-PL]

    House of Cards



    Gatunek: Dramat, Polityczny
    Zdjęcia: Eigil BryldIgor Martinovic(więcej...)
    Muzyka: Jeff Beal


    Po zwycięskich dla swojej partii wyborach prezydenckich senator Francis Underwood (Kevin Spacey) zostaje pozbawiony obiecanego mu wcześniej stanowiska Sekretarza Stanu. Underwood, wykorzystując manipulacje oraz intrygi, zamierza zemścić się na prezydencie i odebrać mu urząd. Postanawia posłużyć się również dziennikarką Zoe Barnes (Kate Mara).


    Kevin Spacey - Francis Underwood
    Robin Wright - Claire Underwood
    Kate Mara - Zoe Barnes
    Mahershala Ali - Remy Danton
    Sakina Jaffrey - Linda Vasquez
    Corey Stoll - Kongresmen Peter Russo
    Michael Kelly - Doug Stamper
    Constance Zimmer - Janine Skorsky






    Format : Matroska
    Format version : Version 4 / Version 2
    File size : 889 MiB
    Duration : 47mn 6s
    Overall bit rate : 2 637 Kbps

    Video
    ID : 1
    Format : AVC
    Format/Info : Advanced Video Codec
    Format profile : High@L4.1
    Format settings, CABAC : Yes
    Format settings, ReFrames : 10 frames
    Codec ID : V_MPEG4/ISO/AVC
    Duration : 47mn 6s
    Bit rate : 2 361 Kbps
    Width : 1 280 pixels
    Height : 640 pixels
    Display aspect ratio : 2.000
    Frame rate mode : Constant
    Frame rate : 23.976 fps
    Color space : YUV
    Chroma subsampling : 4:2:0
    Bit depth : 8 bits
    Scan type : Progressive
    Bits/(Pixel*Frame) : 0.120
    Stream size : 796 MiB (90%)
    Writing library : x264

    Audio
    ID : 2
    Format : AC-3
    Format/Info : Audio Coding 3
    Mode extension : CM (complete main)
    Format settings, Endianness : Big
    Codec ID : A_AC3
    Duration : 47mn 6s
    Bit rate mode : Constant
    Bit rate : 224 Kbps
    Channel(s) : 2 channels
    Channel positions : Front: L R
    Sampling rate : 48.0 KHz
    Bit depth : 16 bits
    Compression mode : Lossy
    Stream size : 75.5 MiB (8%)
    Language : Polish


    Nazwa uploadu: 1-3, 4-6, 7-9, 10-11, 12-13
    Rozmiar uploadu: 11,3 GB
    Rozmiar segmentu: 20 MB
    Ilość segmentów: 126+125+129+95+108
    Liczba mirrorów: 10
    Uploader: Look
    Upload dla: UFS
    Hasło: www.ufs.pt

    Masz problem z programem M4UDownloader? Zajrzyj do działu Poradniki & FAQ tego programu.


    Zawartość Ukryta. Kliknij "PODZIĘKUJ" żeby zobaczyć hashcode. (ikonka browara)



    Upload zawiera 10% danych naprawczych!
    Jak korzystać z danych naprawczych? Tutaj znajdziesz poradnik!
    Ostatnio edytowane przez Look ; 21-05-2015 o 19:54


    MEMBER > FULL MEMBER > UFS TRIAL > KREATOR > FULL MEMBER > UFS TRIAL > UPLOADER > SUPER UPLOADER > UFS ELITE>MODERATOR>


    +


  2. Liczba osób które doceniły autora: 426


  3.    Sponsored Links




  4. #2
    Retired Awatar ZielonY
     Informacje : 
    Dołączył
    Dec 2013
    Skąd
    ja to znam?
    Posty
    7,768
     Statystyki uploadów : 
    Filmy
    144
    Gry
    9
    Programy
    1
    Seriale
    19
    Muzyka
    13
    Porno
    2
    Małe upy
    1
     Łączny upload : 
    P2M UP
    1030.38 GB
     Zapostowane konta : 
    Total CA
    6695
     Podziękowania : 
    Podziękował: 3,130
    Doceniono: 12,925 razy w 267 postach
    ZielonY jest nieaktywny

    Domyślnie

    niezatwierdzone
    Ostatnio edytowane przez ZielonY ; 21-05-2015 o 20:42

    Member > Full Member > UFS Trial > UFS Uploader > Super Uploader > UFS Elite > Super Vip > UFS Elite >Moderator > Super Moderator > Retired

Informacje o wątku

Użytkownicy przeglądający ten wątek

Aktualnie 1 użytkownik(ów) przegląda ten wątek. (0 zarejestrowany(ch) oraz 1 gości)

Podobne wątki

  1. 11.5GB House of Cards [Sezon 3][2015][WEBRip][720p][x264][AC3][ENG]
    Przez Skylark w dziale Pełne Sezony [Dział od rangi FullMember]
    Odpowiedzi: 1
    Ostatni post / autor: 02-03-2015, 17:52
  2. Odpowiedzi: 1
    Ostatni post / autor: 22-05-2014, 17:39
  3. 12GB House of Cards [Sezon 2][2014][WEBRip][720p][x264][AC3][ENG]
    Przez smela w dziale Pełne Sezony [Dział od rangi FullMember]
    Odpowiedzi: 1
    Ostatni post / autor: 18-02-2014, 11:13
  4. 6GB House of Cards [SEZON 2][2013][WEBRip][1080p][x264][AC3][ENG]
    Przez smela w dziale Pełne Sezony [Dział od rangi FullMember]
    Odpowiedzi: 1
    Ostatni post / autor: 16-02-2014, 00:27

Uprawnienia umieszczania postów

  • Nie możesz zakładać nowych tematów
  • Nie możesz pisać wiadomości
  • Nie możesz dodawać załączników
  • Nie możesz edytować swoich postów
  •