Aktualizacje seriali
 



Ogłoszenia
UFS - dotacje
Dotacje SMS
Jak korzystać z forumowej szukajki



Pokaż wyniki od 1 do 2 z 2

Wątek: Police Academy 3: Back in Training [1986][Blu-Ray][1080p][x264][DTS][ENG]

  1. #1
    Do I really look like a guy with a plan? Awatar Enyg
     Informacje : 
    Dołączył
    Feb 2014
    Skąd
    Cintra
    Posty
    3,396
     Statystyki uploadów : 
    Filmy
    46
    Gry
    52
    Programy
    1
    Seriale
    31
    Muzyka
    5
    Inne
    23
     Łączny upload : 
    P2M UP
    916.79 GB
     Zapostowane konta : 
    Total CA
    8195
     Podziękowania : 
    Podziękował: 1,584
    Doceniono: 8,595 razy w 299 postach
    Enyg jest nieaktywny

    m4ud Police Academy 3: Back in Training [1986][Blu-Ray][1080p][x264][DTS][ENG]

    Police Academy 3: Back in Training

    Akademia Policyjna 3: Powrót do szkoły




    Reżyseria: Jerry Paris
    Scenariusz: Gene Quintano
    Gatunek: Komedia kryminalna
    Produkcja: USA
    Premiera: 21 marca 1986 (świat) 1986-03-21
    Ocena: 6,7 / 10
    Muzyka: Robert Folk
    Zdjęcia: Robert Saad



    Podopieczni komendanta Lassarda pomagają w przeszkoleniu nowych kadetów, by akademia nie została zamknięta.

    W mieście działają dwie konkurencyjne akademie policyjne, jedna pod wodzą komendanta Lassarda, druga - pod dowództwem komendanta Mausera. Utrzymanie obydwu jest bardzo kosztowne i jedna z nich musi zostać zamknięta, o czym ma rozstrzygnąć konkurs. Mauser jest przekonany o swojej wygranej. Lassard z kolei ściąga czworo swych najlepszych absolwentów, czyli Mahoneya, Hightowera, Jonesa i Hooksa, by uratować honor Akademii. Rozpoczyna się walka na śmierć i życie, która obfituje w zabawne sytuacje i nieoczekiwane zmiany akcji.



    Sierżant Carey Mahoney - Steve Guttenberg
    Sierżant Moses Hightower - Bubba Smith
    Sierżant Eugene Tackleberry - David Graf
    Sierżant Larvell Jones - Michael Winslow
    Sierżant Fackler - Bruce Mahler
    Sierżant Hooks - Marion Ramsey
    Porucznik Callahan - Leslie Easterbrook
    Komendant Mauser - Art Metrano






    Spoiler: 

    Police.Academy.3.Back.in.Training.1986.1080p.BluRa y.x264-HD4U.mkv
    Format : Matroska
    Format version : Version 4 / Version 2
    File size : 5.46 GiB
    Duration : 1h 23mn
    Overall bit rate : 9 337 Kbps
    Encoded date : UTC 2013-11-21 22:16:18
    Writing application : mkvmerge v6.2.0 ('Promised Land') built on Apr 28 2013 12:22:01
    Writing library : libebml v1.3.0 + libmatroska v1.4.0

    Video
    ID : 1
    Format : AVC
    Format/Info : Advanced Video Codec
    Format profile : High@L4.1
    Format settings, CABAC : Yes
    Format settings, ReFrames : 4 frames
    Codec ID : V_MPEG4/ISO/AVC
    Duration : 1h 23mn
    Bit rate : 8 570 Kbps
    Width : 1 920 pixels
    Height : 1 080 pixels
    Display aspect ratio : 16:9
    Frame rate mode : Constant
    Frame rate : 23.976 fps
    Color space : YUV
    Chroma subsampling : 4:2:0
    Bit depth : 8 bits
    Scan type : Progressive
    Bits/(Pixel*Frame) : 0.172
    Stream size : 4.90 GiB (90%)
    Title : X264
    Writing library : x264 core
    Language : English
    Default : Yes
    Forced : No

    Audio
    ID : 2
    Format : DTS
    Format/Info : Digital Theater Systems
    Mode : 16
    Format settings, Endianness : Big
    Codec ID : A_DTS
    Duration : 1h 23mn
    Bit rate mode : Constant
    Bit rate : 768 Kbps
    Channel(s) : 1 channel
    Channel positions : Front: C
    Sampling rate : 48.0 KHz
    Bit depth : 24 bits
    Compression mode : Lossy
    Stream size : 460 MiB (8%)
    Title : DTS
    Language : English
    Default : Yes
    Forced : No



    Nazwa uploadu: Police.Academy.3.Back.in.Training.1986.1080p.BluRa y.x264-HD4U (1)
    Nazwa pliku: Police.Academy.3.Back.in.Training.1986.1080p.BluRa y.x264-HD4U.mkv
    Rozmiar uploadu: 3580 MB
    Rozmiar segmentu: 20 MB
    Ilość segmentów: 179
    Liczba mirrorów: 10

    Nazwa uploadu: Police.Academy.3.Back.in.Training.1986.1080p.BluRa y.x264-HD4U (2)
    Nazwa pliku: Police.Academy.3.Back.in.Training.1986.1080p.BluRa y.x264-HD4U.mkv
    Rozmiar uploadu: 2020 MB
    Rozmiar segmentu: 20 MB
    Ilość segmentów: 101
    Liczba mirrorów: 8
    Hasło: www.ufs.pt

    Masz problem z programem M4UDownloader? Zajrzyj do działu Poradniki & FAQ tego programu.


    Zawartość Ukryta. Kliknij "PODZIĘKUJ" żeby zobaczyć hashcode. (ikonka browara)
    Upload wykonany w M4UD LINUX



  2. Liczba osób które doceniły autora: 7


  3.    Sponsored Links




  4. #2
    Awatar JRK
     Informacje : 
    Dołączył
    Nov 2007
    Posty
    7,433
     Statystyki uploadów : 
    Filmy
    438
    Gry
    51
    Programy
    41
    Seriale
    6
    Muzyka
    40
    Inne
    15
    Małe upy
    1
     Łączny upload : 
    P2M UP
    2723.7 GB
     Zapostowane konta : 
    Total CA
    8275
     Podziękowania : 
    Podziękował: 2,541
    Doceniono: 15,985 razy w 511 postach
    JRK jest nieaktywny

    Domyślnie

    niezatwierdzone
    Member > Full Member > User > Power User > Tester > Uploader > Extreme Uploader > Moderator > Moderator >Super Moderator > Master > Administrator




Informacje o wątku

Użytkownicy przeglądający ten wątek

Aktualnie 1 użytkownik(ów) przegląda ten wątek. (0 zarejestrowany(ch) oraz 1 gości)

Podobne wątki

  1. 5.5GB Police Academy 2: Their First Assignment [1985][Blu-Ray][1080p][x264][DTS][ENG]
    Przez Enyg w dziale Filmy High Definition [Dział od rangi FullMember]
    Odpowiedzi: 1
    Ostatni post / autor: 09-03-2015, 20:27
  2. 6.5GB Police Academy [1984][Blu-Ray][1080p][x264][DTS][ENG]
    Przez Enyg w dziale Filmy High Definition [Dział od rangi FullMember]
    Odpowiedzi: 1
    Ostatni post / autor: 09-03-2015, 15:31
  3. 0.7GB Police Academy 3 Back in Training [1986][DVDRip][ENG]
    Przez terrmos w dziale HQ (High Quality - Wysoka Jakość)
    Odpowiedzi: 1
    Ostatni post / autor: 11-11-2010, 20:32

Uprawnienia umieszczania postów

  • Nie możesz zakładać nowych tematów
  • Nie możesz pisać wiadomości
  • Nie możesz dodawać załączników
  • Nie możesz edytować swoich postów
  •