Aktualizacje seriali
 



Ogłoszenia
UFS - dotacje
Dotacje SMS
Jak korzystać z forumowej szukajki



Pokaż wyniki od 1 do 2 z 2

Wątek: Police Academy 2: Their First Assignment [1985][Blu-Ray][1080p][x264][DTS][ENG]

  1. #1
    Do I really look like a guy with a plan? Awatar Enyg
     Informacje : 
    Dołączył
    Feb 2014
    Skąd
    Cintra
    Posty
    3,396
     Statystyki uploadów : 
    Filmy
    46
    Gry
    52
    Programy
    1
    Seriale
    31
    Muzyka
    5
    Inne
    23
     Łączny upload : 
    P2M UP
    916.79 GB
     Zapostowane konta : 
    Total CA
    8195
     Podziękowania : 
    Podziękował: 1,584
    Doceniono: 8,595 razy w 299 postach
    Enyg jest nieaktywny

    m4ud Police Academy 2: Their First Assignment [1985][Blu-Ray][1080p][x264][DTS][ENG]

    Police Academy 2: Their First Assignment

    Akademia Policyjna 2: Pierwsze zadanie




    Reżyseria: Jerry Paris
    Scenariusz: David Sheffield, Barry W. Blaustein, Neal Israel
    Gatunek: Komedia kryminalna
    Produkcja: USA
    Premiera: 29 marca 1985 (świat) 1985-03-29
    Ocena: 6,8 / 10
    Muzyka: Robert Folk
    Zdjęcia: James Crabe



    Absolwenci Akademii zostają przydzieleni do nowego komisariatu, by rozprawić się z szalejącym w mieście gangiem.

    Absolwenci Akademii Policyjnej rozpoczynają służbę i otrzymują zadanie zaprowadzenia porządku w najbardziej niebezpiecznej dzielnicy miasta. Okazuje się, że komendantem tamtejszego posterunku jest Pete Lassard (Howard Hesseman), brat szefa Akademii. Świeżo upieczeni policjanci robią wszystko, aby sprostać zadaniu, aczkolwiek nie zawsze im się to udaje. Podczas pierwszej akcji - próby udaremnienia napadu na sklep - wezwane patrole strzelają do siebie nawzajem...



    Carey Mahoney - Steve Guttenberg
    Moses Hightower - Bubba Smith
    Tackleberry - David Graf
    Larvell Jones - Michael Winslow
    Doug Fackler - Bruce Mahler
    Laverne Hooks - Marion Ramsey
    Kirkland - Colleen Camp
    Pete Lassard - Howard Hesseman







    Spoiler: 

    General
    police.academy.2.1985.1080p.bluray.x264-psychd.mkv
    Format : Matroska
    Format version : Version 2
    File size : 5.46 GiB
    Duration : 1h 27mn
    Overall bit rate : 8 977 Kbps
    Writing application : x264.exe
    Writing library : mkv2rls v1.4 (date: 2011 mar 29)

    Video
    ID : 1
    Format : AVC
    Format/Info : Advanced Video Codec
    Format profile : High@L4.1
    Format settings, CABAC : Yes
    Format settings, ReFrames : 4 frames
    Codec ID : V_MPEG4/ISO/AVC
    Duration : 1h 27mn
    Bit rate : 8 208 Kbps
    Width : 1 920 pixels
    Height : 1 080 pixels
    Display aspect ratio : 16:9
    Frame rate mode : Constant
    Frame rate : 23.976 fps
    Color space : YUV
    Chroma subsampling : 4:2:0
    Bit depth : 8 bits
    Scan type : Progressive
    Bits/(Pixel*Frame) : 0.165
    Stream size : 4.89 GiB (89%)
    Writing library : x264 core
    Language : English
    Default : Yes
    Forced : No

    Audio
    ID : 2
    Format : DTS
    Format/Info : Digital Theater Systems
    Mode : 16
    Format settings, Endianness : Big
    Codec ID : A_DTS
    Duration : 1h 27mn
    Bit rate mode : Constant
    Bit rate : 768 Kbps
    Channel(s) : 6 channels
    Channel(s)_Original : 1 channel
    Channel positions : Front: C
    Sampling rate : 48.0 KHz
    Bit depth : 24 bits
    Compression mode : Lossy
    Stream size : 479 MiB (9%)
    Language : English
    Default : Yes
    Forced : No

    Text
    ID : 3
    Format : UTF-8
    Codec ID : S_TEXT/UTF8
    Codec ID/Info : UTF-8 Plain Text
    Language : English




    Nazwa uploadu: police.academy.2.1985.1080p.bluray.x264-psychd (1)
    Nazwa pliku: police.academy.2.1985.1080p.bluray.x264-psychd.mkv
    Rozmiar uploadu: 3580 MB
    Rozmiar segmentu: 20 MB
    Ilość segmentów: 179
    Liczba mirrorów: 10

    Nazwa uploadu: police.academy.2.1985.1080p.bluray.x264-psychd (2)
    Nazwa pliku: police.academy.2.1985.1080p.bluray.x264-psychd.mkv
    Rozmiar uploadu: 2020 MB
    Rozmiar segmentu: 20 MB
    Ilość segmentów: 101
    Liczba mirrorów: 8
    Hasło: www.ufs.pt

    Masz problem z programem M4UDownloader? Zajrzyj do działu Poradniki & FAQ tego programu.


    Zawartość Ukryta. Kliknij "PODZIĘKUJ" żeby zobaczyć hashcode. (ikonka browara)
    Upload wykonany w M4UD 2.1.0



  2. Liczba osób które doceniły autora: 6


  3.    Sponsored Links




  4. #2
    Retired Awatar ZielonY
     Informacje : 
    Dołączył
    Dec 2013
    Skąd
    ja to znam?
    Posty
    7,768
     Statystyki uploadów : 
    Filmy
    144
    Gry
    9
    Programy
    1
    Seriale
    19
    Muzyka
    13
    Porno
    2
    Małe upy
    1
     Łączny upload : 
    P2M UP
    1030.38 GB
     Zapostowane konta : 
    Total CA
    6695
     Podziękowania : 
    Podziękował: 3,130
    Doceniono: 12,928 razy w 267 postach
    ZielonY jest nieaktywny

    Domyślnie

    niezatwierdzone
    Ostatnio edytowane przez ZielonY ; 09-03-2015 o 20:31

    Member > Full Member > UFS Trial > UFS Uploader > Super Uploader > UFS Elite > Super Vip > UFS Elite >Moderator > Super Moderator > Retired

Informacje o wątku

Użytkownicy przeglądający ten wątek

Aktualnie 1 użytkownik(ów) przegląda ten wątek. (0 zarejestrowany(ch) oraz 1 gości)

Podobne wątki

  1. 0.7GB Police Academy 2 Their First Assignment [1985][DVDRip][ENG]
    Przez terrmos w dziale HQ (High Quality - Wysoka Jakość)
    Odpowiedzi: 2
    Ostatni post / autor: 13-11-2010, 15:14
  2. 0.7GB Police Academy 5 Assignment Miami Beach [1988][DVDRip][ENG]
    Przez terrmos w dziale HQ (High Quality - Wysoka Jakość)
    Odpowiedzi: 1
    Ostatni post / autor: 11-11-2010, 18:55

Uprawnienia umieszczania postów

  • Nie możesz zakładać nowych tematów
  • Nie możesz pisać wiadomości
  • Nie możesz dodawać załączników
  • Nie możesz edytować swoich postów
  •