Aktualizacje seriali
 



Ogłoszenia
UFS - dotacje
Dotacje SMS
Jak korzystać z forumowej szukajki



Pokaż wyniki od 1 do 2 z 2

Wątek: Police Academy [1984][Blu-Ray][1080p][x264][DTS][ENG]

  1. #1
    Do I really look like a guy with a plan? Awatar Enyg
     Informacje : 
    Dołączył
    Feb 2014
    Skąd
    Cintra
    Posty
    3,396
     Statystyki uploadów : 
    Filmy
    46
    Gry
    52
    Programy
    1
    Seriale
    31
    Muzyka
    5
    Inne
    23
     Łączny upload : 
    P2M UP
    916.79 GB
     Zapostowane konta : 
    Total CA
    8195
     Podziękowania : 
    Podziękował: 1,584
    Doceniono: 8,595 razy w 299 postach
    Enyg jest nieaktywny

    m4ud Police Academy [1984][Blu-Ray][1080p][x264][DTS][ENG]

    Police Academy

    Akademia Policyjna




    Reżyseria: Hugh Wilson
    Scenariusz: Pat Proft, Hugh Wilson, Neal Israel
    Gatunek: Komedia kryminalna
    Produkcja: USA
    Premiera: 23 marca 1984 (świat) 1984-03-23
    Ocena: 6,8 / 10
    Muzyka: Robert Folk
    Zdjęcia: Michael D. Margulies
    Dystrybucja: Warner Bros Records



    Decyzja pani burmistrz powoduje, że do miejscowej akademii policyjnej zgłasza się każdy chętny. Nowi, często niezbyt kompetentni kandydaci zostają poddani surowemu szkoleniu.

    Nowa pani burmistrz ogłasza, że każda osoba może zostać policjantem, co nie podoba się dowództwu policji. Do szkoły policyjnej, pod opiekę komendanta Lassarda (George Haynes) trafia bardzo dużo ludzi, którzy na pierwszy rzut oka nie pasują do siebie. Jest wśród nich między innymi fanatyk broni strzeleckiej Tackleberry (David Graf), twardy i bardzo silny Hightower (Bubba Smith), wystraszona i skromna Hooks (Marion Ramsey), umiejący udawać wszystkie odgłosy Jones (Michael Winslow) oraz Mahoney (Steve Guttenberg) - drobny cwaniaczek, który zakochuje się w Thompson (Kim Cattrall). Mimo wielu różnic wszyscy się zaprzyjaźniają. Niestety na drodze do ukończenia szkoły staje porucznik Harris (G. W. Bailey), który zrobi wszystko, aby uprzykrzyć im pobyt w szkole i doprowadzić do ich rezygnacji.



    Carey Mahoney - Steve Guttenberg
    Porucznik Harris - G.W. Bailey
    Komendant Lassard - George Gaynes
    Larvell Jones - Michael Winslow
    Karen Thompson - Kim Cattrall
    Moses Hightower - Bubba Smith
    George Martin - Andrew Rubin
    Kadet Leslie Barbara - Donovan Scott






    Spoiler: 

    General
    Police.Academy.1984.1080p.BluRay.X264-AMIABLE.mkv
    Format : Matroska
    Format version : Version 2
    File size : 6.56 GiB
    Duration : 1h 36mn
    Overall bit rate : 9 740 Kbps
    Writing application : x264.exe
    Writing library : mkv2rls v1.4 (date: 2011 mar 29)

    Video
    ID : 1
    Format : AVC
    Format/Info : Advanced Video Codec
    Format profile : High@L4.1
    Format settings, CABAC : Yes
    Format settings, ReFrames : 4 frames
    Codec ID : V_MPEG4/ISO/AVC
    Duration : 1h 36mn
    Bit rate : 8 969 Kbps
    Width : 1 920 pixels
    Height : 1 080 pixels
    Display aspect ratio : 16:9
    Frame rate mode : Constant
    Frame rate : 23.976 fps
    Color space : YUV
    Chroma subsampling : 4:2:0
    Bit depth : 8 bits
    Scan type : Progressive
    Bits/(Pixel*Frame) : 0.180
    Stream size : 5.91 GiB (90%)
    Writing library : x264 core
    Language : English
    Default : Yes
    Forced : No

    Audio
    ID : 2
    Format : DTS
    Format/Info : Digital Theater Systems
    Mode : 16
    Format settings, Endianness : Big
    Codec ID : A_DTS
    Duration : 1h 36mn
    Bit rate mode : Constant
    Bit rate : 768 Kbps
    Channel(s) : 6 channels
    Channel(s)_Original : 1 channel
    Channel positions : Front: C
    Sampling rate : 48.0 KHz
    Bit depth : 24 bits
    Compression mode : Lossy
    Stream size : 530 MiB (8%)
    Language : English
    Default : Yes
    Forced : No

    Text
    ID : 3
    Format : UTF-8
    Codec ID : S_TEXT/UTF8
    Codec ID/Info : UTF-8 Plain Text
    Language : English
    Default : No
    Forced : No



    Nazwa uploadu: Police.Academy.1984.1080p.BluRay.X264-AMIABLE (1)
    Nazwa pliku: Police.Academy.1984.1080p.BluRay.X264-AMIABLE.mkv
    Rozmiar uploadu: 3580 MB
    Rozmiar segmentu: 20 MB
    Ilość segmentów: 179
    Liczba mirrorów: 10

    Nazwa uploadu: Police.Academy.1984.1080p.BluRay.X264-AMIABLE (2)
    Nazwa pliku: Police.Academy.1984.1080p.BluRay.X264-AMIABLE.mkv
    Rozmiar uploadu: 3140 MB
    Rozmiar segmentu: 20 MB
    Ilość segmentów: 157
    Liczba mirrorów: 10
    Hasło: www.ufs.pt

    Masz problem z programem M4UDownloader? Zajrzyj do działu Poradniki & FAQ tego programu.


    Zawartość Ukryta. Kliknij "PODZIĘKUJ" żeby zobaczyć hashcode. (ikonka browara)
    Upload wykonany w M4UD 2.1.0



  2. Liczba osób które doceniły autora: 9


  3.    Sponsored Links




  4. #2
    Awatar JRK
     Informacje : 
    Dołączył
    Nov 2007
    Posty
    7,433
     Statystyki uploadów : 
    Filmy
    438
    Gry
    51
    Programy
    41
    Seriale
    6
    Muzyka
    40
    Inne
    15
    Małe upy
    1
     Łączny upload : 
    P2M UP
    2723.7 GB
     Zapostowane konta : 
    Total CA
    8275
     Podziękowania : 
    Podziękował: 2,541
    Doceniono: 15,988 razy w 511 postach
    JRK jest nieaktywny

    Domyślnie

    niezatwierdzone
    Member > Full Member > User > Power User > Tester > Uploader > Extreme Uploader > Moderator > Moderator >Super Moderator > Master > Administrator




Informacje o wątku

Użytkownicy przeglądający ten wątek

Aktualnie 1 użytkownik(ów) przegląda ten wątek. (0 zarejestrowany(ch) oraz 1 gości)

Podobne wątki

  1. 0.7GB Police Academy [1984][DVDRip][ENG]
    Przez terrmos w dziale HQ (High Quality - Wysoka Jakość)
    Odpowiedzi: 2
    Ostatni post / autor: 29-11-2010, 16:47

Uprawnienia umieszczania postów

  • Nie możesz zakładać nowych tematów
  • Nie możesz pisać wiadomości
  • Nie możesz dodawać załączników
  • Nie możesz edytować swoich postów
  •