Aktualizacje seriali
 



Ogłoszenia
UFS - dotacje
Dotacje SMS
Jak korzystać z forumowej szukajki



Pokaż wyniki od 1 do 4 z 4

Wątek: The Hunger Games: Mockingjay - Part 1 [2014][WEB-DL][1080p][x264][AC3][ENG]

  1. #1
    Retired Awatar Look
     Informacje : 
    Dołączył
    Jan 2008
    Posty
    4,307
     Statystyki uploadów : 
    Filmy
    595
    Gry
    59
    Programy
    1
    Seriale
    72
    Muzyka
    13
    Porno
    1
    Inne
    4
     Łączny upload : 
    P2M UP
    2456.2 GB
     Zapostowane konta : 
    Total CA
    8670
     Podziękowania : 
    Podziękował: 972
    Doceniono: 20,197 razy w 324 postach
    Look jest nieaktywny

    m4ud The Hunger Games: Mockingjay - Part 1 [2014][WEB-DL][1080p][x264][AC3][ENG]

    The Hunger Games: Mockingjay - Part 1

    Igrzyska śmierci: Kosogłos. Część 1




    Produkcja: USA
    Data Premiery: 2014-11-21 (kino), 2014-11-10 (świat), 2015-03-25 (dvd)
    Reżyseria: Francis Lawrence
    Scenariusz: Danny Strong, Peter Craig
    Czas trwania: 123 minut
    Dystrybucja: Forum Film Poland
    Gatunek: Akcja | Dramat | Sci-Fi | Przygodowy
    Ocena: 6,9 / 10



    Katniss Everdeen (Jennifer Lawrence) trafia do Dystryktu 13 po tym jak raz na zawsze położyła kres Głodowym Igrzyskom. Wbrew kłamliwej propagandzie, rebelianci przetrwali zemstę Kapitolu. Pod przewodnictwem Prezydent Coin (Julianne Moore), przygotowują się do rozprawy z dyktatorską władzą. Katniss, mimo początkowych wahań, zgadza się wziąć udział w walce. Czy odnajdzie się w roli przywódczyni? Czy stanie się Kosogłosem, symbolem nadziei i oporu przeciw tyranii Prezydenta Snowa? (opis dystrybutora)



    Katniss Everdeen - Jennifer Lawrence
    Peeta Mellark - Josh Hutcherson
    Gale Hawthorne - Liam Hemsworth
    Haymitch Abernathy - Woody Harrelson
    Prezydent Snow - Donald Sutherland
    Plutarch Heavensbee - Philip Seymour Hoffman
    Prezydent Alma Coin - Julianne Moore
    Primrose Everdeen - Willow Shields









    ID : 1
    Format : AVC
    Format/Info : Advanced Video Codec
    Format profile : High@L4.0
    Format settings, CABAC : Yes
    Format settings, ReFrames : 5 frames
    Codec ID : V_MPEG4/ISO/AVC
    Duration : 1h 57mn
    Bit rate : 4 449 Kbps
    Width : 1 912 pixels
    Height : 792 pixels
    Display aspect ratio : 2.40:1
    Frame rate mode : Constant
    Frame rate : 25.000 fps
    Color space : YUV
    Chroma subsampling : 4:2:0
    Bit depth : 8 bits
    Scan type : Progressive
    Bits/(Pixel*Frame) : 0.118
    Stream size : 3.66 GiB (90%)
    Title : The.Hunger.Games.Mockingjay.Part.1.2014.1080p.WEB-DL.DD5.1.H264-RARBG
    Language : English
    Default : Yes
    Forced : No
    Color primaries : BT.709
    Transfer characteristics : BT.709
    Matrix coefficients : BT.709
    Color range : Limited

    Audio
    ID : 2
    Format : AC-3
    Format/Info : Audio Coding 3
    Mode extension : CM (complete main)
    Format settings, Endianness : Big
    Codec ID : A_AC3
    Duration : 1h 57mn
    Bit rate mode : Constant
    Bit rate : 384 Kbps
    Channel(s) : 6 channels
    Channel positions : Front: L C R, Side: L R, LFE
    Sampling rate : 48.0 KHz
    Bit depth : 16 bits
    Compression mode : Lossy
    Stream size : 324 MiB (8%)
    Title : The.Hunger.Games.Mockingjay.Part.1.2014.1080p.WEB-DL.DD5.1.H264-RARBG
    Language : English
    Default : Yes
    Forced : No



    Nazwa pliku: The.Hunger.Games.Mockingjay.Part.1.2014.1080p.WEB-DL.DD5.1.H264-RARBG.rar
    Rozmiar uploadu: 4.42GB
    Rozmiar segmentu: 20 MB
    Ilość segmentów: 23-103
    Ilość mirrorów: 5-9
    Hasło: www.ufs.pt

    Masz problem z programem M4UDownloader? Zajrzyj do działu Poradniki & FAQ tego programu.


    Zawartość Ukryta. Kliknij "PODZIĘKUJ" żeby zobaczyć hashcode. (ikonka browara)

    Upload zawiera 10% danych naprawczych!
    Jak korzystać z danych naprawczych? Tutaj znajdziesz poradnik!
    Upload wykonany w M4UD 2.1.0


    MEMBER > FULL MEMBER > UFS TRIAL > KREATOR > FULL MEMBER > UFS TRIAL > UPLOADER > SUPER UPLOADER > UFS ELITE>MODERATOR>


    +


  2. Liczba osób które doceniły autora: 345


  3.    Sponsored Links




  4. #2
    Hodie mihi cras tibi Awatar Gwyn
     Informacje : 
    Dołączył
    May 2011
    Skąd
    Turek/Poznań
    Posty
    5,747
     Statystyki uploadów : 
    Filmy
    229
    Gry
    194
    Seriale
    44
    Porno
    4
     Łączny upload : 
    P2M UP
    4080.65 GB
     Zapostowane konta : 
    Total CA
    10605
     Podziękowania : 
    Podziękował: 1,797
    Doceniono: 19,005 razy w 368 postach
    Gwyn jest nieaktywny

    Domyślnie

    niezatwierdzone
    Ostatnio edytowane przez JRK ; 19-02-2015 o 10:29



    Wstawka się spodobała? Nie zapomnij podziękować!

  5. #3
    Full Member Awatar diablik
     Informacje : 
    Dołączył
    Oct 2008
    Skąd
    Z Polski:D
    Posty
    1,375
     Statystyki uploadów : 
    Gry
    7
     Łączny upload : 
    P2M UP
    11.6 GB
     Podziękowania : 
    Podziękował: 1,364
    Thanked 1 Time in 1 Post
    diablik jest nieaktywny

    Domyślnie

    Mam problemy z pierwszym partem, po pobraniu i próbie rozpakowania wyskakuje, że jest uszkodzony part 1. Próbowałem naprawić lecz nic nie dało, nawet ściągnąłem drugi raz, naprawiłem i także nic.

  6. #4
    Retired Awatar F3
     Informacje : 
    Dołączył
    Mar 2008
    Posty
    6,909
     Statystyki uploadów : 
    Filmy
    2064
    Gry
    219
    Programy
    29
    Seriale
    238
    Muzyka
    159
    Porno
    256
    Inne
    31
     Łączny upload : 
    P2M UP
    9618.9 GB
     Zapostowane konta : 
    Total CA
    16710
     Podziękowania : 
    Podziękował: 166
    Doceniono: 22,208 razy w 934 postach
    F3 jest nieaktywny

    Domyślnie

    Liczba osób które doceniły autora: 274

    skoro tylu pobrało i tylko ty zgłaszasz błąd to jak myślisz po które stronie jest wina>?

Informacje o wątku

Użytkownicy przeglądający ten wątek

Aktualnie 1 użytkownik(ów) przegląda ten wątek. (0 zarejestrowany(ch) oraz 1 gości)

Uprawnienia umieszczania postów

  • Nie możesz zakładać nowych tematów
  • Nie możesz pisać wiadomości
  • Nie możesz dodawać załączników
  • Nie możesz edytować swoich postów
  •