Aktualizacje seriali
 



Ogłoszenia
UFS - dotacje
Dotacje SMS
Jak korzystać z forumowej szukajki



Pokaż wyniki od 1 do 2 z 2

Wątek: Interstellar [2014][DVDScr][AC3][ENG]

  1. #1
    .::dEpeChe mOde::. Awatar DM
     Informacje : 
    Dołączył
    Mar 2008
    Skąd
    Klucze
    Posty
    2,747
     Statystyki uploadów : 
    Filmy
    347
    Gry
    16
    Programy
    1
    Seriale
    43
    Muzyka
    3
    Porno
    7
    Inne
    9
     Łączny upload : 
    P2M UP
    1723.92 GB
     Zapostowane konta : 
    Total CA
    1275
     Podziękowania : 
    Podziękował: 840
    Doceniono: 39,357 razy w 265 postach
    DM jest nieaktywny

    m4ud Interstellar [2014][DVDScr][AC3][ENG]

    Interstellar
    Interstellar



    Gatunek: Sci-Fi
    Produkcja: USA, Wielka Brytania
    Data Premiery: 7 listopada 2014 (Polska) 26 października 2014 (świat)
    Reżyseria: Christopher Nolan
    Scenariusz: Christopher Nolan, Jonathan Nolan
    Zdjęcia: Hoyte Van Hoytema
    Muzyka: Hans Zimmer
    Dystrybucja: Warner Bros. Entertainment Polska Sp. z o. o.


    Historia grupy badaczy, którzy dzięki nowo odkrytemu tunelowi czasoprzestrzennemu pokonują granice do tej pory przekraczające ludzkie możliwości podróżowania w innym wymiarze. Film oparty jest na teorii naukowej opracowanej przez fizyka z Caltech Kipa Thorne'a.


    Matthew McConaughey - Cooper
    Anne Hathaway - Brand
    Jessica Chastain - Murph
    Bill Irwin - TARS (głos)
    Ellen Burstyn - Stara Murph
    Michael Caine - Profesor Brand
    John Lithgow - Donald
    Wes Bentley - Doyle








    Video
    ID : 0
    Format : MPEG-4 Visual
    Format profile : Advanced Simple@L5
    Format settings, BVOP : 2
    Format settings, QPel : Yes
    Format settings, GMC : No warppoints
    Format settings, Matrix : Default (H.263)
    Muxing mode : Packed bitstream
    Codec ID : XVID
    Codec ID/Hint : XviD
    Duration : 2h 49mn
    Bit rate : 1 702 Kbps
    Width : 720 pixels
    Height : 314 pixels
    Display aspect ratio : 2.25:1
    Frame rate : 29.970 fps
    Color space : YUV
    Chroma subsampling : 4:2:0
    Bit depth : 8 bits
    Scan type : Progressive
    Compression mode : Lossy
    Bits/(Pixel*Frame) : 0.251
    Stream size : 2.01 GiB (88%)
    Writing library : XviD 1.2.1 (UTC 2008-12-04)

    Audio
    ID : 1
    Format : AC-3
    Format/Info : Audio Coding 3
    Mode extension : CM (complete main)
    Format settings, Endianness : Big
    Codec ID : 2000
    Duration : 2h 49mn
    Bit rate mode : Constant
    Bit rate : 224 Kbps
    Channel(s) : 2 channels
    Channel positions : Front: L R
    Sampling rate : 48.0 KHz
    Bit depth : 16 bits
    Compression mode : Lossy
    Stream size : 271 MiB (12%)
    Alignment : Aligned on interleaves
    Interleave, duration : 64 ms (1.92 video frames)
    Interleave, preload duration : 192 ms


    Nazwa uploadu: Interstellar.2014.DVDScr.XVID.AC3.HQ.Hive-CM8
    Nazwa pliku: Interstellar.2014.DVDScr.XVID.AC3.HQ.Hive-CM8.avi
    Rozmiar uploadu: 2335 MB
    Rozmiar segmentu: 10 MB
    Ilość segmentów: 234
    Liczba mirrorów: 10
    Uploader: dm
    Upload dla: ufs
    Hasło: www.ufs.pt

    Masz problem z programem M4UDownloader? Zajrzyj do działu Poradniki & FAQ tego programu.


    Zawartość Ukryta. Kliknij "PODZIĘKUJ" żeby zobaczyć hashcode. (ikonka browara)

  2. Liczba osób które doceniły autora: 253


  3.    Sponsored Links




  4. #2
    Hodie mihi cras tibi Awatar Gwyn
     Informacje : 
    Dołączył
    May 2011
    Skąd
    Turek/Poznań
    Posty
    5,747
     Statystyki uploadów : 
    Filmy
    229
    Gry
    194
    Seriale
    44
    Porno
    4
     Łączny upload : 
    P2M UP
    4080.65 GB
     Zapostowane konta : 
    Total CA
    10605
     Podziękowania : 
    Podziękował: 1,797
    Doceniono: 19,005 razy w 368 postach
    Gwyn jest nieaktywny

    Domyślnie

    Ostatnio edytowane przez Gwyn ; 21-01-2015 o 17:49



    Wstawka się spodobała? Nie zapomnij podziękować!

Informacje o wątku

Użytkownicy przeglądający ten wątek

Aktualnie 1 użytkownik(ów) przegląda ten wątek. (0 zarejestrowany(ch) oraz 1 gości)

Podobne wątki

  1. 2GB The Expendables III [2014][DVDScr][AC3][ENG]
    Przez DM w dziale HQ (High Quality - Wysoka Jakość)
    Odpowiedzi: 2
    Ostatni post / autor: 31-07-2014, 19:06

Uprawnienia umieszczania postów

  • Nie możesz zakładać nowych tematów
  • Nie możesz pisać wiadomości
  • Nie możesz dodawać załączników
  • Nie możesz edytować swoich postów
  •