Aktualizacje seriali
 



Ogłoszenia
UFS - dotacje
Dotacje SMS
Jak korzystać z forumowej szukajki



Pokaż wyniki od 1 do 2 z 2

Wątek: Anatomia zemsty [2013][BluRay][1080p][x264][AC3/DTS][LEK-PL]

  1. #1
    Retired Awatar RAZOM
     Informacje : 
    Dołączył
    Apr 2014
    Skąd
    Internet
    Posty
    6,444
     Statystyki uploadów : 
    Filmy
    1175
    Gry
    268
    Seriale
    270
    Muzyka
    51
    Porno
    1
    Inne
    6
     Łączny upload : 
    P2M UP
    12642.4 GB
     Zapostowane konta : 
    Total CA
    6285
     Podziękowania : 
    Podziękował: 1,170
    Doceniono: 188,110 razy w 1,931 postach
    RAZOM jest nieaktywny

    m4ud Anatomia zemsty [2013][BluRay][1080p][x264][AC3/DTS][LEK-PL]

    Anatomia zemsty
    Life of Crime



    Gatunek: Komedia kryminalna,
    Produkcja: USA,
    Premiera: Brak danych
    Reżyseria: Daniel Schechter
    Scenariusz: Daniel Schechter
    Muzyka: The Newton Brothers ,
    Zdjęcia: Eric Alan Edwards,
    Dystrybucja: Brak danych
    Ocena: 5,6/10



    Film jest adaptacją powieściElmore Leonarda "The Switch". Ordell Robbie (Mos Def)i Louis Gara (John Hawkes)poznają się w więzieniu, gdzie trafiają za kradzieże samochodów. Po wyjściu na wolność postanawiają połączyć siły. Wkrótce przestępcy porywają dla okupuMickey (Jennifer Aniston), jednakże jej mąż, Frank (Tim Robbins), odmawia uiszczenia opłaty za żonę. Kobieta planuje zemścić się na nim i prosi kryminalistów o pomoc.



    Melanie Ralston - Isla Fisher
    Mickey Dawson - Jennifer Aniston
    Frank Dawson - Tim Robbins
    Louis Gara - John Hawkes
    Louis Gara - Will Forte
    Ordell Robbie - Mos Def








    Video
    ID : 1
    Format : AVC
    Format/Info : Advanced Video Codec
    Format profile : High@L4.1
    Format settings, CABAC : Yes
    Format settings, ReFrames : 5 frames
    Format settings, GOP : M=7, N=16
    Codec ID : V_MPEG4/ISO/AVC
    Duration : 1h 40mn
    Bit rate : 11.0 Mbps
    Width : 1 920 pixels
    Height : 804 pixels
    Display aspect ratio : 2.35:1
    Frame rate : 23.976 fps
    Color space : YUV
    Chroma subsampling : 4:2:0
    Bit depth : 8 bits
    Scan type : Progressive
    Bits/(Pixel*Frame) : 0.297
    Stream size : 7.58 GiB (83%)

    Audio #1
    ID : 2
    Format : AC-3
    Format/Info : Audio Coding 3
    Mode extension : CM (complete main)
    Codec ID : A_AC3
    Duration : 1h 40mn
    Bit rate mode : Constant
    Bit rate : 448 Kbps
    Channel(s) : 6 channels
    Channel positions : Front: L C R, Side: L R, LFE
    Sampling rate : 48.0 KHz
    Bit depth : 16 bits
    Compression mode : Lossy
    Stream size : 323 MiB (3%)
    Language : Polish

    Audio #2
    ID : 3
    Format : DTS
    Format/Info : Digital Theater Systems
    Codec ID : A_DTS
    Duration : 1h 40mn
    Bit rate mode : Constant
    Bit rate : 1 510 Kbps
    Channel(s) : 6 channels
    Channel positions : Front: L C R, Side: L R, LFE
    Sampling rate : 48.0 KHz
    Bit depth : 24 bits
    Compression mode : Lossy
    Stream size : 1.06 GiB (12%)
    Language : English



    Nazwa uploadu: Life.of.Crime.2013.MULTi.1080p.BluRay.x264-PSiG.part1-2
    Nazwa pliku: Life.of.Crime.2013.MULTi.1080p.BluRay.x264-PSiG.part1-2.rar
    Rozmiar uploadu: 3584 MB
    Rozmiar segmentu: 9 MB
    Ilość segmentów: 399
    Liczba mirrorów: 12

    Nazwa uploadu: Life.of.Crime.2013.MULTi.1080p.BluRay.x264-PSiG.part3
    Nazwa pliku: Life.of.Crime.2013.MULTi.1080p.BluRay.x264-PSiG.part3.rar
    Rozmiar uploadu: 3147 MB
    Rozmiar segmentu: 9 MB
    Ilość segmentów: 350
    Liczba mirrorów: 12


    Hasło: www.ufs.pt


    Masz problem z programem M4UDownloader? Zajrzyj do działu Poradniki & FAQ tego programu.


    Zawartość Ukryta. Kliknij "PODZIĘKUJ" żeby zobaczyć hashcode. (ikonka browara)

    Upload zawiera 10% danych naprawczych!
    Jak korzystać z danych naprawczych? Tutaj znajdziesz poradnik!



    Novy Rządzi
    Zapostowane za pomocą Novy Rządzi Releaser
    Jeśli coś nie działa, czegoś potrzebujesz pisz na PW, nie mam czasu żeby sprawdzać wszystkich komentarzy.
    Pakuje uploady WinRar'em 5.1+, używaj do wypakowania takiego lub nowszego.

  2. Liczba osób które doceniły autora: 32


  3.    Sponsored Links




  4. #2
    Legends Awatar kadeshar
     Informacje : 
    Dołączył
    Sep 2008
    Posty
    6,670
     Statystyki uploadów : 
    Filmy
    205
    Gry
    135
    Programy
    3
    Seriale
    89
    Inne
    49
    Małe upy
    3
     Łączny upload : 
    P2M UP
    1508.8 GB
     Zapostowane konta : 
    Total CA
    8830
     Podziękowania : 
    Podziękował: 2,003
    Doceniono: 16,932 razy w 620 postach
    kadeshar jest nieaktywny

    Domyślnie

    Ostatnio edytowane przez kadeshar ; 16-01-2015 o 19:10
    W razie problemów z moim uploadem proszę pisać w temacie i dokładnie opisywać problemy (nr błędu, problem z jakimi skrzynkami itd.)

Informacje o wątku

Użytkownicy przeglądający ten wątek

Aktualnie 1 użytkownik(ów) przegląda ten wątek. (0 zarejestrowany(ch) oraz 1 gości)

Podobne wątki

  1. 2.5GB Anatomia zemsty [2013][BRRip][720p][AC3][LEK-PL]
    Przez Szatan w dziale Filmy High Definition [Dział od rangi FullMember]
    Odpowiedzi: 1
    Ostatni post / autor: 16-01-2015, 16:55
  2. 30GB Wyścig [2013][BluRay][1080p][DTS][x264][LEK-PL/ENG]
    Przez F3 w dziale Filmy High Definition [Dział od rangi FullMember]
    Odpowiedzi: 1
    Ostatni post / autor: 10-11-2014, 14:24

Uprawnienia umieszczania postów

  • Nie możesz zakładać nowych tematów
  • Nie możesz pisać wiadomości
  • Nie możesz dodawać załączników
  • Nie możesz edytować swoich postów
  •