Aktualizacje seriali
 



Ogłoszenia
UFS - dotacje
Dotacje SMS
Jak korzystać z forumowej szukajki



Pokaż wyniki od 1 do 2 z 2

Wątek: A Most Violent Year [2014][DVDScr][AC3][ENG]

  1. #1
    Retired Awatar RAZOM
     Informacje : 
    Dołączył
    Apr 2014
    Skąd
    Internet
    Posty
    6,444
     Statystyki uploadów : 
    Filmy
    1175
    Gry
    268
    Seriale
    270
    Muzyka
    51
    Porno
    1
    Inne
    6
     Łączny upload : 
    P2M UP
    12642.4 GB
     Zapostowane konta : 
    Total CA
    6285
     Podziękowania : 
    Podziękował: 1,170
    Doceniono: 188,092 razy w 1,931 postach
    RAZOM jest nieaktywny

    m4ud A Most Violent Year [2014][DVDScr][AC3][ENG]

    A Most Violent Year



    Gatunek: Dramat, Kryminał,
    Produkcja: USA,
    Premiera: 27 lutego 2015 (Polska) 6 listopada 2014 (świat)
    Reżyseria: J.C. Chandor
    Scenariusz: J.C. Chandor,
    Muzyka: Alex Ebert,
    Zdjęcia: Bradford Young,
    Dystrybucja: Forum Film Poland Sp. z o.o.,
    Ocena: 7,3/10



    Nowy Jork, 1981 r. Ambitny imigrant próbuje chronić swój biznes oraz rodzinę podczas najbardziej niebezpiecznego roku pod względem przestępczości.



    Oscar Isaac - Abel Morales
    Jessica Chastain - Anna Morales
    David Oyelowo - Lawrence
    Alessandro Nivola - Peter Forente
    Albert Brooks - Andrew Walsh
    Elyes Gabel - Julian
    Catalina Sandino Moreno - Luisa
    Peter Gerety - Bill O'Leary











    Format : AVI
    Format/Info : Audio Video Interleave
    Format profile : OpenDML
    Format settings : rec
    File size : 1.62 GiB
    Duration : 2h 4mn
    Overall bit rate : 1 856 Kbps
    Writing application : AVI-Mux GUI 1.17.7, Aug 8 2006 20:59:17

    Video
    ID : 0
    Format : MPEG-4 Visual
    Format profile : Advanced Simple@L5
    Format settings, BVOP : 2
    Format settings, QPel : Yes
    Format settings, GMC : No warppoints
    Format settings, Matrix : Default (H.263)
    Muxing mode : Packed bitstream
    Codec ID : XVID
    Codec ID/Hint : XviD
    Duration : 2h 4mn
    Bit rate : 1 658 Kbps
    Width : 720 pixels
    Height : 304 pixels
    Display aspect ratio : 2.35:1
    Frame rate : 23.976 fps
    Color space : YUV
    Chroma subsampling : 4:2:0
    Bit depth : 8 bits
    Scan type : Progressive
    Compression mode : Lossy
    Bits/(Pixel*Frame) : 0.316
    Stream size : 1.45 GiB (89%)
    Writing library : XviD 1.2.1 (UTC 2008-12-04)

    Audio
    ID : 1
    Format : AC-3
    Format/Info : Audio Coding 3
    Mode extension : CM (complete main)
    Format settings, Endianness : Big
    Codec ID : 2000
    Duration : 2h 4mn
    Bit rate mode : Constant
    Bit rate : 192 Kbps
    Channel(s) : 2 channels
    Channel positions : Front: L R
    Sampling rate : 48.0 KHz
    Bit depth : 16 bits
    Compression mode : Lossy
    Stream size : 172 MiB (10%)
    Alignment : Aligned on interleaves
    Interleave, duration : 64 ms (1.53 video frames)
    Interleave, preload duration : 192 ms
    Title : fin



    Nazwa uploadu: A.Most.Violent.Year.2014.DVDScr.XVID.AC3.HQ.Hive-CM8
    Nazwa pliku: A.Most.Violent.Year.2014.DVDScr.XVID.AC3.HQ.Hive-CM8.avi
    Rozmiar uploadu: 1658 MB
    Rozmiar segmentu: 9 MB
    Ilość segmentów: 185
    Liczba mirrorów: 8
    Hasło: www.ufs.pt


    Masz problem z programem M4UDownloader? Zajrzyj do działu Poradniki & FAQ tego programu.


    Zawartość Ukryta. Kliknij "PODZIĘKUJ" żeby zobaczyć hashcode. (ikonka browara)



    Novy Rządzi
    Zapostowane za pomocą Novy Rządzi Releaser
    Ostatnio edytowane przez kadeshar ; 11-01-2015 o 19:44
    Jeśli coś nie działa, czegoś potrzebujesz pisz na PW, nie mam czasu żeby sprawdzać wszystkich komentarzy.
    Pakuje uploady WinRar'em 5.1+, używaj do wypakowania takiego lub nowszego.

  2. Liczba osób które doceniły autora: 87


  3.    Sponsored Links




  4. #2
    Legends Awatar kadeshar
     Informacje : 
    Dołączył
    Sep 2008
    Posty
    6,670
     Statystyki uploadów : 
    Filmy
    205
    Gry
    135
    Programy
    3
    Seriale
    89
    Inne
    49
    Małe upy
    3
     Łączny upload : 
    P2M UP
    1508.8 GB
     Zapostowane konta : 
    Total CA
    8830
     Podziękowania : 
    Podziękował: 2,003
    Doceniono: 16,933 razy w 620 postach
    kadeshar jest nieaktywny

    Domyślnie

    Ostatnio edytowane przez kadeshar ; 11-01-2015 o 19:44
    W razie problemów z moim uploadem proszę pisać w temacie i dokładnie opisywać problemy (nr błędu, problem z jakimi skrzynkami itd.)

Informacje o wątku

Użytkownicy przeglądający ten wątek

Aktualnie 1 użytkownik(ów) przegląda ten wątek. (0 zarejestrowany(ch) oraz 1 gości)

Podobne wątki

  1. 0.7GB The Violent Kind [2010][DVDRip][ENG]
    Przez Jesters w dziale HQ (High Quality - Wysoka Jakość)
    Odpowiedzi: 1
    Ostatni post / autor: 25-09-2011, 12:32

Uprawnienia umieszczania postów

  • Nie możesz zakładać nowych tematów
  • Nie możesz pisać wiadomości
  • Nie możesz dodawać załączników
  • Nie możesz edytować swoich postów
  •