Aktualizacje seriali
 



Ogłoszenia
UFS - dotacje
Dotacje SMS
Jak korzystać z forumowej szukajki



Pokaż wyniki od 1 do 2 z 2

Wątek: Splash [1984][DVDRip][AC3][ENG]

  1. #1
    Retired Awatar RAZOM
     Informacje : 
    Dołączył
    Apr 2014
    Skąd
    Internet
    Posty
    6,444
     Statystyki uploadów : 
    Filmy
    1175
    Gry
    268
    Seriale
    270
    Muzyka
    51
    Porno
    1
    Inne
    6
     Łączny upload : 
    P2M UP
    12642.4 GB
     Zapostowane konta : 
    Total CA
    6285
     Podziękowania : 
    Podziękował: 1,170
    Doceniono: 188,110 razy w 1,931 postach
    RAZOM jest nieaktywny

    m4ud Splash [1984][DVDRip][AC3][ENG]

    Splash



    Produkcja: USA
    Data Premiery: 1984-03-09 (świat), 2002-11-27 (dvd)
    Reżyseria: Ron Howard
    Scenariusz: Lowell Ganz, Babaloo Mandel
    Czas trwania: 111 minut
    Dystrybucja:
    Gatunek: Familijny | Fantasy | Komedia | Romans
    Ocena: 6,3 / 10



    Alan Bauer (Tom Hanks) jest rzutkim, nowojorskim biznesmenem - prawdziwym człowiekiem sukcesu. Podczas podróży łodzią ulega wypadkowi i traci przytomność. Ratuje go piękna jak bogini dziewczyna (Daryl Hannah), jakby żywcem wyjęta ze snów i marzeń wszystkich mężczyzn. Sytuacja godna pozazdroszczenia, gdyby nie jeden, drobny szczegół - urocza nieznajoma jest prawdziwą SYRENĄ! (Anonimowy)



    Allen Bauer - Tom Hanks
    Madison - Daryl Hannah
    Walter Kornbluth - Eugene Levy
    Freddie Bauer - John Candy
    Pani Stimler - Dody Goodman
    Pan Buyrite - Shecky Greene
    Dr Ross - Richard B. Shull
    Jerry - Bobby Di Cicco









    General
    Format : AVI
    Format/Info : Audio Video Interleave
    Format profile : OpenDML
    File size : 1.40 GiB
    Duration : 1h 49mn
    Overall bit rate : 1 821 Kbps
    Writing application : AVI-Mux GUI 1.17.8.3, Feb 16 201019:42:50

    Video
    ID : 0
    Format : MPEG-4 Visual
    Format profile : Advanced Simple@L5
    Format settings, BVOP : Yes
    Format settings, QPel : No
    Format settings, GMC : No warppoints
    Format settings, Matrix : Default (H.263)
    Codec ID : XVID
    Codec ID/Hint : XviD
    Duration : 1h 49mn
    Bit rate : 1 368 Kbps
    Width : 624 pixels
    Height : 336 pixels
    Display aspect ratio : 1.857
    Frame rate : 23.976 fps
    Color space : YUV
    Chroma subsampling : 4:2:0
    Bit depth : 8 bits
    Scan type : Progressive
    Compression mode : Lossy
    Bits/(Pixel*Frame) : 0.272
    Stream size : 1.05 GiB (75%)
    Writing library : XviD 1.2.1 (UTC 2008-12-04)

    Audio
    ID : 1
    Format : AC-3
    Format/Info : Audio Coding 3
    Mode extension : CM (complete main)
    Codec ID : 2000
    Duration : 1h 49mn
    Bit rate mode : Constant
    Bit rate : 448 Kbps
    Channel(s) : 6 channels
    Channel positions : Front: L C R, Side: L R, LFE
    Sampling rate : 48.0 KHz
    Bit depth : 16 bits
    Compression mode : Lossy
    Stream size : 352 MiB (25%)
    Alignment : Aligned on interleaves
    Interleave, duration : 64 ms (1.53 video frames)
    Interleave, preload duration : 192 ms
    Title : VTS_01_1 T80 3_2ch 448Kbps DELAY 0ms_new




    Nazwa uploadu: Splash(1984)-DVDRIp Xvid-THC
    Nazwa pliku: Splash(1984)-DVDRIp Xvid-THC.avi
    Rozmiar uploadu: 1429 MB
    Ilość segmentów: 159
    Rozmiar segmentu: 9 MB
    Liczba mirrorów: 8
    Hasło: www.ufs.pt

    Masz problem z programem M4UDownloader? Zajrzyj do działu Poradniki & FAQ tego programu.


    Zawartość Ukryta. Kliknij "PODZIĘKUJ" żeby zobaczyć hashcode. (ikonka browara)
    Upload wykonany w M4UD 2.1.0
    Ostatnio edytowane przez kadeshar ; 10-01-2015 o 16:02
    Jeśli coś nie działa, czegoś potrzebujesz pisz na PW, nie mam czasu żeby sprawdzać wszystkich komentarzy.
    Pakuje uploady WinRar'em 5.1+, używaj do wypakowania takiego lub nowszego.

  2. Liczba osób które doceniły autora: 4


  3.    Sponsored Links




  4. #2
    Legends Awatar kadeshar
     Informacje : 
    Dołączył
    Sep 2008
    Posty
    6,670
     Statystyki uploadów : 
    Filmy
    205
    Gry
    135
    Programy
    3
    Seriale
    89
    Inne
    49
    Małe upy
    3
     Łączny upload : 
    P2M UP
    1508.8 GB
     Zapostowane konta : 
    Total CA
    8830
     Podziękowania : 
    Podziękował: 2,003
    Doceniono: 16,932 razy w 620 postach
    kadeshar jest nieaktywny

    Domyślnie

    Ostatnio edytowane przez kadeshar ; 10-01-2015 o 16:03
    W razie problemów z moim uploadem proszę pisać w temacie i dokładnie opisywać problemy (nr błędu, problem z jakimi skrzynkami itd.)

Informacje o wątku

Użytkownicy przeglądający ten wątek

Aktualnie 1 użytkownik(ów) przegląda ten wątek. (0 zarejestrowany(ch) oraz 1 gości)

Podobne wątki

  1. Akademia Policyjna 1-7 [1984-1984] [DVDRip]
    Przez zguto w dziale HQ (High Quality - Wysoka Jakość)
    Odpowiedzi: 2
    Ostatni post / autor: 20-07-2014, 16:28

Uprawnienia umieszczania postów

  • Nie możesz zakładać nowych tematów
  • Nie możesz pisać wiadomości
  • Nie możesz dodawać załączników
  • Nie możesz edytować swoich postów
  •