Aktualizacje seriali
 



Ogłoszenia
UFS - dotacje
Dotacje SMS
Jak korzystać z forumowej szukajki



Pokaż wyniki od 1 do 2 z 2

Wątek: Young Frankenstein [1974][DVDRip][x264][AC3][ENG]

  1. #1
    Retired Awatar RAZOM
     Informacje : 
    Dołączył
    Apr 2014
    Skąd
    Internet
    Posty
    6,444
     Statystyki uploadów : 
    Filmy
    1175
    Gry
    268
    Seriale
    270
    Muzyka
    51
    Porno
    1
    Inne
    6
     Łączny upload : 
    P2M UP
    12642.4 GB
     Zapostowane konta : 
    Total CA
    6285
     Podziękowania : 
    Podziękował: 1,170
    Doceniono: 188,242 razy w 1,931 postach
    RAZOM jest nieaktywny

    m4ud Young Frankenstein [1974][DVDRip][x264][AC3][ENG]

    Young Frankenstein



    Produkcja: USA
    Data Premiery: 1974-12-15 (świat)
    Reżyseria: Mel Brooks
    Scenariusz: Mel Brooks, Gene Wilder
    Czas trwania: 108 minut
    Dystrybucja:
    Gatunek: Horror | Komedia | Sci-Fi
    Ocena: 7,1 / 10



    Frederick Frankenstein przez cały czas nie przyznaje się do pokrewieństwa ze swym szalonym dziadkiem, który usiłował stworzyć człowieka doskonałego. Zmienia się to w momencie, gdy młodzieniec otrzymuje w spadku posiadłość. Przy pomocy Igora oraz Ingi udaje mu się ożywić poskładane ciało... (majak01)



    Dr Frederick Frankenstein - Gene Wilder
    Potwór - Peter Boyle
    Igor - Marty Feldman
    Elizabeth - Madeline Kahn
    Pani Blücher - Cloris Leachman
    Inga - Teri Garr
    Hans Wilhelm Friederich Kemp, inspektor policji - Kenneth Mars
    Gerhard Falkstein - Richard Haydn









    Format: Matroska
    File size: 1.47 GiB
    Duration: 1h 41mn
    Overall bit rate: 2 072 Kbps
    Writing application: HandBrake 0.9.4

    Video
    ID: 1
    Format: AVC
    Format/Info: Advanced Video Codec
    Format profile: Main@L3.0
    Format settings, CABAC: Yes
    Format settings, ReFrames: 2 frames
    Muxing mode: Container profile=Unknown@3.0
    Codec ID: V_MPEG4/ISO/AVC
    Duration: 1h 41mn
    Bit rate: 1 874 Kbps
    Width: 704 pixels
    Height: 384 pixels
    Display aspect ratio: 16:9
    Frame rate: 29.970 fps
    Color space: YUV
    Chroma subsampling: 4:2:0
    Bit depth: 8 bits
    Scan type: Progressive
    Bits/(Pixel*Frame): 0.231
    Stream size: 1.30 GiB (89%)
    Writing library: x264 core 79
    Language: English
    Color primaries: BT.601-6 525, BT.1358 525, BT.1700 NTSC, SMPTE 170M
    Transfer characteristics: BT.709-5, BT.1361
    Matrix coefficients: BT.601-6 525, BT.1358 525, BT.1700 NTSC, SMPTE 170M

    Audio
    ID: 2
    Format: AC-3
    Format/Info: Audio Coding 3
    Mode extension: CM (complete main)
    Codec ID: A_AC3
    Duration: 1h 41mn
    Bit rate mode: Constant
    Bit rate: 192 Kbps
    Channel(s): 2 channels
    Channel positions: Front: L R
    Sampling rate: 48.0 KHz
    Bit depth: 16 bits
    Stream size: 139 MiB (9%)
    Language: English

    Release Date: 15 December 1974



    Nazwa uploadu: Young Frankenstein (mopargreg) THC
    Nazwa pliku: Young Frankenstein (mopargreg) THC.mkv
    Rozmiar uploadu: 1501 MB
    Ilość segmentów: 167
    Rozmiar segmentu: 9 MB
    Liczba mirrorów: 8
    Hasło: www.ufs.pt

    Masz problem z programem M4UDownloader? Zajrzyj do działu Poradniki & FAQ tego programu.


    Zawartość Ukryta. Kliknij "PODZIĘKUJ" żeby zobaczyć hashcode. (ikonka browara)
    Upload wykonany w M4UD 2.1.0
    Ostatnio edytowane przez RAZOM ; 09-01-2015 o 18:41
    Jeśli coś nie działa, czegoś potrzebujesz pisz na PW, nie mam czasu żeby sprawdzać wszystkich komentarzy.
    Pakuje uploady WinRar'em 5.1+, używaj do wypakowania takiego lub nowszego.

  2. Liczba osób które doceniły autora: 6


  3.    Sponsored Links




  4. #2
    Retired Awatar ZielonY
     Informacje : 
    Dołączył
    Dec 2013
    Skąd
    ja to znam?
    Posty
    7,768
     Statystyki uploadów : 
    Filmy
    144
    Gry
    9
    Programy
    1
    Seriale
    19
    Muzyka
    13
    Porno
    2
    Małe upy
    1
     Łączny upload : 
    P2M UP
    1030.38 GB
     Zapostowane konta : 
    Total CA
    6695
     Podziękowania : 
    Podziękował: 3,130
    Doceniono: 12,929 razy w 267 postach
    ZielonY jest teraz aktywny

    Domyślnie

    niezatwierdzone
    Ostatnio edytowane przez ZielonY ; 10-01-2015 o 15:28

    Member > Full Member > UFS Trial > UFS Uploader > Super Uploader > UFS Elite > Super Vip > UFS Elite >Moderator > Super Moderator > Retired

Informacje o wątku

Użytkownicy przeglądający ten wątek

Aktualnie 1 użytkownik(ów) przegląda ten wątek. (0 zarejestrowany(ch) oraz 1 gości)

Uprawnienia umieszczania postów

  • Nie możesz zakładać nowych tematów
  • Nie możesz pisać wiadomości
  • Nie możesz dodawać załączników
  • Nie możesz edytować swoich postów
  •