Aktualizacje seriali
 



Ogłoszenia
UFS - dotacje
Dotacje SMS
Jak korzystać z forumowej szukajki



Pokaż wyniki od 1 do 2 z 2

Wątek: Mary Poppins [1964][DVDRip][x264][AC3][ENG]

  1. #1
    Retired Awatar RAZOM
     Informacje : 
    Dołączył
    Apr 2014
    Skąd
    Internet
    Posty
    6,444
     Statystyki uploadów : 
    Filmy
    1175
    Gry
    268
    Seriale
    270
    Muzyka
    51
    Porno
    1
    Inne
    6
     Łączny upload : 
    P2M UP
    12642.4 GB
     Zapostowane konta : 
    Total CA
    6285
     Podziękowania : 
    Podziękował: 1,170
    Doceniono: 188,099 razy w 1,931 postach
    RAZOM jest nieaktywny

    m4ud Mary Poppins [1964][DVDRip][x264][AC3][ENG]

    Mary Poppins



    Produkcja: USA
    Data Premiery: 1964-08-27 (świat), 2007-09-11 (dvd)
    Reżyseria: Robert Stevenson
    Scenariusz: P.L. Travers (książka), Bill Walsh (scenopis)
    Czas trwania: 140 minut
    Gatunek: Familijny | Fantasy | Komedia | Muzyczny | Przygodowy
    Ocena: 7,8 / 10



    Poznaj Mary Poppins, najlepszą nianię świata. Właśnie ona sprawi, że najbardziej nudny domowy obowiązek zamieni się w niezwykłą grę, a każdy dzień w pełną przygód wyprawę do fantastycznego świata magii i wyobraźni. Razem z Mary Poppins przywitasz się z niesamowitymi osobami, w tym z niepowtarzalnym kominiarzem Bertem (Dyke Van Dyke) oraz odwiedzisz magiczne krainy. (opis dystrybutora)



    Mary Poppins - Julie Andrews
    Bert / Pan Dawes, Sr. - Dick Van Dyke
    Pan George W. Banks - David Tomlinson
    Pani Winifred Banks - Glynis Johns
    Ellen - Hermione Baddeley
    Katie Nanna - Elsa Lanchester
    Wuj Albert - Ed Wynn
    Żółw / Pingwin (głos) (niewymieniony w czołówce) - Daws Butler
    Jane Banks (polski dubbing) - Monika Błachnio
    Mary Poppins (polski dubbing) - Joanna Węgrzynowska-Cybińska
    Pan George W. Banks (polski dubbing) - Stefan Knothe
    Pani Winifred Banks (polski dubbing) - Beata Wyrąbkiewicz









    Format: Matroska
    File size: 1.95 GiB
    Duration: 2h 13mn
    Overall bit rate: 2 092 Kbps
    Writing application: HandBrake 0.9.4

    Video
    ID: 1
    Format: AVC
    Format/Info: Advanced Video Codec
    Format profile: High@L3.0
    Format settings, CABAC: Yes
    Format settings, ReFrames: 3 frames
    Muxing mode: Container profile=Unknown@3.0
    Codec ID: V_MPEG4/ISO/AVC
    Duration: 2h 13mn
    Bit rate: 1 703 Kbps
    Width: 592 pixels
    Height: 352 pixels
    Display aspect ratio: 1.682
    Frame rate: 25.000 fps
    Color space: YUV
    Chroma subsampling: 4:2:0
    Bit depth: 8 bits
    Scan type: Progressive
    Bits/(Pixel*Frame): 0.327
    Stream size: 1.56 GiB (80%)
    Writing library: x264 core 79
    Language: English
    Color primaries: BT.601-6 525, BT.1358 525, BT.1700 NTSC,SMPTE 170M
    Transfer characteristics: BT.709-5, BT.1361
    Matrix coefficients: BT.601-6 525, BT.1358 525, BT.1700 NTSC, SMPTE 170M

    Audio
    ID: 2
    Format: AC-3
    Format/Info: Audio Coding 3
    Mode extension: CM (complete main)
    Codec ID: A_AC3
    Duration: 2h 13mn
    Bit rate mode: Constant
    Bit rate: 384 Kbps
    Channel(s): 6 channels
    Channel positions: Front: L C R, Side: L R, LFE
    Sampling rate: 48.0 KHz
    Bit depth: 16 bits
    Stream size: 367 MiB (18%)
    Language: English

    Release Date: 29 August 1964

    Source: DVD-9 from MIRCrew, thanks



    Nazwa uploadu: Mary Poppins (mopargreg) THC
    Nazwa pliku: Mary Poppins (mopargreg) THC.mkv
    Rozmiar uploadu: 2001 MB
    Ilość segmentów: 223
    Rozmiar segmentu: 9 MB
    Liczba mirrorów: 8
    Hasło: www.ufs.pt

    Masz problem z programem M4UDownloader? Zajrzyj do działu Poradniki & FAQ tego programu.


    Zawartość Ukryta. Kliknij "PODZIĘKUJ" żeby zobaczyć hashcode. (ikonka browara)
    Upload wykonany w M4UD 2.1.0
    Ostatnio edytowane przez ZielonY ; 10-01-2015 o 15:35
    Jeśli coś nie działa, czegoś potrzebujesz pisz na PW, nie mam czasu żeby sprawdzać wszystkich komentarzy.
    Pakuje uploady WinRar'em 5.1+, używaj do wypakowania takiego lub nowszego.

  2. Liczba osób które doceniły autora: 8


  3.    Sponsored Links




  4. #2
    Retired Awatar ZielonY
     Informacje : 
    Dołączył
    Dec 2013
    Skąd
    ja to znam?
    Posty
    7,768
     Statystyki uploadów : 
    Filmy
    144
    Gry
    9
    Programy
    1
    Seriale
    19
    Muzyka
    13
    Porno
    2
    Małe upy
    1
     Łączny upload : 
    P2M UP
    1030.38 GB
     Zapostowane konta : 
    Total CA
    6695
     Podziękowania : 
    Podziękował: 3,130
    Doceniono: 12,925 razy w 267 postach
    ZielonY jest nieaktywny

    Domyślnie

    niezatwierdzone
    Ostatnio edytowane przez ZielonY ; 10-01-2015 o 15:37

    Member > Full Member > UFS Trial > UFS Uploader > Super Uploader > UFS Elite > Super Vip > UFS Elite >Moderator > Super Moderator > Retired

Informacje o wątku

Użytkownicy przeglądający ten wątek

Aktualnie 1 użytkownik(ów) przegląda ten wątek. (0 zarejestrowany(ch) oraz 1 gości)

Uprawnienia umieszczania postów

  • Nie możesz zakładać nowych tematów
  • Nie możesz pisać wiadomości
  • Nie możesz dodawać załączników
  • Nie możesz edytować swoich postów
  •