Aktualizacje seriali
 



Ogłoszenia
UFS - dotacje
Dotacje SMS
Jak korzystać z forumowej szukajki



Pokaż wyniki od 1 do 2 z 2

Wątek: Gone Girl [2014][HDRip][720p][AC3][ENG]

  1. #1
    .::dEpeChe mOde::. Awatar DM
     Informacje : 
    Dołączył
    Mar 2008
    Skąd
    Klucze
    Posty
    2,747
     Statystyki uploadów : 
    Filmy
    347
    Gry
    16
    Programy
    1
    Seriale
    43
    Muzyka
    3
    Porno
    7
    Inne
    9
     Łączny upload : 
    P2M UP
    1723.92 GB
     Zapostowane konta : 
    Total CA
    1275
     Podziękowania : 
    Podziękował: 840
    Doceniono: 39,350 razy w 265 postach
    DM jest nieaktywny

    m4ud Gone Girl [2014][HDRip][720p][AC3][ENG]

    Zaginiona dziewczyna
    Gone Girl



    Gatunek: Thriller, Dramat
    Produkcja: USA
    Data Premiery: 2014-10-10 (kino) , 2014-09-26 (świat)
    Reżyseria: David Fincher
    Scenariusz: Gillian Flynn (również) (powieść)
    Zdjęcia: Jeff Cronenweth
    Muzyka: Trent Reznor Atticus Ross
    Dystrybucja: Imperial - CinePix


    Adaptacja powieści autorstwa Gillian Flynn. Amy (Rosamund Pike) i Nick Dunne (Ben Affleck) to małżeństwo, które po przeprowadzce przeżywa kryzys. W piątą rocznicę ich ślubu, kobieta znika, a podejrzenia padają na jej męża. (Redox)


    Rosamund Pike - Amy Dunne
    Ben Affleck - Nick Dunne
    Missi Pyle - Ellen Abbott
    Neil Patrick Harris - Desi Collings
    Tyler Perry - Tanner Bolt
    Casey Wilson - Noelle Hawthorne
    Kim Dickens - Rhonda Boney, detektyw
    Patrick Fugit - Jim Gilpin, detektyw








    Video
    ID : 0
    Format : MPEG-4 Visual
    Format profile : Advanced Simple@L5
    Format settings, BVOP : 2
    Format settings, QPel : No
    Format settings, GMC : No warppoints
    Format settings, Matrix : Default (H.263)
    Muxing mode : Packed bitstream
    Codec ID : XVID
    Codec ID/Hint : XviD
    Duration : 2h 29mn
    Bit rate : 3 140 Kbps
    Width : 1 280 pixels
    Height : 528 pixels
    Display aspect ratio : 2.40:1
    Frame rate : 23.976 fps
    Color space : YUV
    Chroma subsampling : 4:2:0
    Bit depth : 8 bits
    Scan type : Progressive
    Compression mode : Lossy
    Bits/(Pixel*Frame) : 0.194
    Stream size : 3.27 GiB (89%)
    Writing library : XviD 1.2.1 (UTC 2008-12-04)

    Audio
    ID : 1
    Format : AC-3
    Format/Info : Audio Coding 3
    Mode extension : CM (complete main)
    Format settings, Endianness : Big
    Codec ID : 2000
    Duration : 2h 28mn
    Bit rate mode : Constant
    Bit rate : 384 Kbps
    Channel(s) : 6 channels
    Channel positions : Front: L C R, Side: L R, LFE
    Sampling rate : 48.0 KHz
    Bit depth : 16 bits
    Compression mode : Lossy
    Stream size : 409 MiB (11%)
    Alignment : Split accross interleaves
    Interleave, duration : 42 ms (1.00 video frame)
    Interleave, preload duration : 500 ms


    Nazwa uploadu: Gone Girl 2014 HDRip 720p XviD.part1
    Nazwa pliku: Gone Girl 2014 HDRip 720p XviD.part1.rar
    Rozmiar uploadu: 2100 MB
    Rozmiar segmentu: 10 MB
    Ilość segmentów: 210
    Liczba mirrorów: 10

    Nazwa uploadu: Gone Girl 2014 HDRip 720p XviD.part2
    Nazwa pliku: Gone Girl 2014 HDRip 720p XviD.part2.rar
    Rozmiar uploadu: 1859 MB
    Rozmiar segmentu: 10 MB
    Ilość segmentów: 186
    Liczba mirrorów: 9
    Uploader: dm
    Upload dla: ufs
    Hasło: www.ufs.pt

    Masz problem z programem M4UDownloader? Zajrzyj do działu Poradniki & FAQ tego programu.


    Zawartość Ukryta. Kliknij "PODZIĘKUJ" żeby zobaczyć hashcode. (ikonka browara)
    Upload zawiera 5% danych naprawczych!
    Jak korzystać z danych naprawczych? Tutaj znajdziesz poradnik!



    Napisy http://www68.zippyshare.com/v/39187776/file.html


    Ostatnio edytowane przez DM ; 11-12-2014 o 18:10







    Kliknij w dziękuje a zobaczysz HC

    <------------------


  2. Liczba osób które doceniły autora: 169


  3.    Sponsored Links




  4. #2
    Retired Awatar ZielonY
     Informacje : 
    Dołączył
    Dec 2013
    Skąd
    ja to znam?
    Posty
    7,768
     Statystyki uploadów : 
    Filmy
    144
    Gry
    9
    Programy
    1
    Seriale
    19
    Muzyka
    13
    Porno
    2
    Małe upy
    1
     Łączny upload : 
    P2M UP
    1030.38 GB
     Zapostowane konta : 
    Total CA
    6695
     Podziękowania : 
    Podziękował: 3,130
    Doceniono: 12,925 razy w 267 postach
    ZielonY jest nieaktywny

    Domyślnie

    niezatwierdzone
    Ostatnio edytowane przez ZielonY ; 11-12-2014 o 15:37

    Member > Full Member > UFS Trial > UFS Uploader > Super Uploader > UFS Elite > Super Vip > UFS Elite >Moderator > Super Moderator > Retired

Informacje o wątku

Użytkownicy przeglądający ten wątek

Aktualnie 1 użytkownik(ów) przegląda ten wątek. (0 zarejestrowany(ch) oraz 1 gości)

Uprawnienia umieszczania postów

  • Nie możesz zakładać nowych tematów
  • Nie możesz pisać wiadomości
  • Nie możesz dodawać załączników
  • Nie możesz edytować swoich postów
  •