Aktualizacje seriali
 



Ogłoszenia
UFS - dotacje
Dotacje SMS
Jak korzystać z forumowej szukajki



Pokaż wyniki od 1 do 2 z 2

Wątek: 3000 Miles [2007][DVDRip][ENG]

  1. #1
    VIP
     Informacje : 
    Dołączył
    Jul 2011
    Skąd
    PXi
    Posty
    256
     Statystyki uploadów : 
    Filmy
    4
    Gry
    2
     Łączny upload : 
    P2M UP
    2.15 GB
     Zapostowane konta : 
    Total CA
    17600
     Podziękowania : 
    Podziękował: 24
    Doceniono: 117 razy w 106 postach
    PXi jest nieaktywny

    m4ud 3000 Miles [2007][DVDRip][ENG]

    3000 Miles



    Gatunek: Dokumentalny
    Produkcja: USA, Wielka Brytania
    Ocena: 7,7 / 10



    Film jest pełnometrażową relacją z rajdu Gumball 3000 z 2006 roku gdzie kierowcy ścigali się na drogach Europy, Azji i USA, a wszystko to w 8 dni. W filmie towarzyszymy gwieździe skateboardingu Tony Hawk'owi, gwiazdom Jackassa - Bam Magierze i Ryan Dunn'owi oraz ich kolegom na trasie liczącej 3000 mil.



    Tony Hawk - (on sam)

    Bam Margera - (on sam)

    Ryan Dunn - (on sam)

    Mike Escamilla - (on sam)

    Mike Vallely - (on sam)








    General
    Complete name : 3000.miles-fov.cd1.avi
    Format : AVI
    Format/Info : Audio Video Interleave
    File size : 694 MiB
    Duration : 51mn 14s
    Overall bit rate mode : Variable
    Overall bit rate : 1 894 Kbps
    Writing application : Nandub v1.0rc2
    Writing library : Nandub build 1853/release

    Video
    ID : 0
    Format : MPEG-4 Visual
    Format profile : Advanced Simple@L5
    Format settings, BVOP : Yes
    Format settings, QPel : No
    Format settings, GMC : No warppoints
    Format settings, Matrix : Default (H.263)
    Codec ID : XVID
    Codec ID/Hint : XviD
    Duration : 51mn 14s
    Bit rate : 1 717 Kbps
    Width : 624 pixels
    Height : 352 pixels
    Display aspect ratio : 16:9
    Frame rate : 25.000 fps
    Color space : YUV
    Chroma subsampling : 4:2:0
    Bit depth : 8 bits
    Scan type : Progressive
    Compression mode : Lossy
    Bits/(Pixel*Frame) : 0.313
    Stream size : 629 MiB (91%)
    Writing library : XviD 1.1.2 (UTC 2006-11-01)

    Audio
    ID : 1
    Format : MPEG Audio
    Format version : Version 1
    Format profile : Layer 3
    Mode : Joint stereo
    Mode extension : MS Stereo
    Codec ID : 55
    Codec ID/Hint : MP3
    Duration : 51mn 14s
    Bit rate mode : Variable
    Bit rate : 165 Kbps
    Channel(s) : 2 channels
    Sampling rate : 48.0 KHz
    Compression mode : Lossy
    Delay relative to video : 8ms
    Stream size : 60.1 MiB (9%)
    Alignment : Aligned on interleaves
    Interleave, duration : 24 ms (0.60 video frame)
    Interleave, preload duration : 918 ms

    General
    Complete name : 3000.miles-fov.cd2.avi
    Format : AVI
    Format/Info : Audio Video Interleave
    File size : 693 MiB
    Duration : 54mn 26s
    Overall bit rate mode : Variable
    Overall bit rate : 1 780 Kbps
    Writing application : Nandub v1.0rc2
    Writing library : Nandub build 1853/release

    Video
    ID : 0
    Format : MPEG-4 Visual
    Format profile : Advanced Simple@L5
    Format settings, BVOP : Yes
    Format settings, QPel : No
    Format settings, GMC : No warppoints
    Format settings, Matrix : Default (H.263)
    Codec ID : XVID
    Codec ID/Hint : XviD
    Duration : 54mn 26s
    Bit rate : 1 600 Kbps
    Width : 624 pixels
    Height : 352 pixels
    Display aspect ratio : 16:9
    Frame rate : 25.000 fps
    Color space : YUV
    Chroma subsampling : 4:2:0
    Bit depth : 8 bits
    Scan type : Progressive
    Compression mode : Lossy
    Bits/(Pixel*Frame) : 0.291
    Stream size : 623 MiB (90%)
    Writing library : XviD 1.1.2 (UTC 2006-11-01)

    Audio
    ID : 1
    Format : MPEG Audio
    Format version : Version 1
    Format profile : Layer 3
    Mode : Joint stereo
    Mode extension : MS Stereo
    Codec ID : 55
    Codec ID/Hint : MP3
    Duration : 54mn 26s
    Bit rate mode : Variable
    Bit rate : 165 Kbps
    Channel(s) : 2 channels
    Sampling rate : 48.0 KHz
    Compression mode : Lossy
    Stream size : 64.9 MiB (9%)
    Alignment : Aligned on interleaves
    Interleave, duration : 24 ms (0.60 video frame)
    Interleave, preload duration : 491 ms



    Nazwa pliku: h97dg9h83.rar
    Ilość segmentów na koncie: 191
    Rozmiar segmentu: 8 MB
    Wielkość uploadu: 1525 MB
    Ilość mirrorów: 5
    Hasło do archiwum RAR: hd8eh93uoidj
    Hasło: www.ufs.pt

    Masz problem z programem M4UDownloader? Zajrzyj do działu Poradniki & FAQ tego programu.






    Przepraszamy, ale nie możesz zobaczyć tego tematu. Musisz sie Zarejestrować
    albo Zalogować





    Przepraszamy, ale nie możesz zobaczyć tego tematu. Musisz sie Zarejestrować
    albo Zalogować

    Upload zawiera 10% danych naprawczych!
    Jak korzystać z danych naprawczych? Tutaj znajdziesz poradnik!
    Upload wykonany w M4UD 2.1.0

  2.    Sponsored Links




  3. #2
    Retired Awatar Freddy
     Informacje : 
    Dołączył
    Nov 2007
    Skąd
    Zasiedmiogórogrodzie
    Posty
    3,804
     Statystyki uploadów : 
    Filmy
    179
    Gry
    159
    Programy
    5
    Seriale
    143
    Muzyka
    26
    Porno
    52
    Inne
    4
    Małe upy
    3
     Łączny upload : 
    P2M UP
    1538.4 GB
     Zapostowane konta : 
    Total CA
    9305
     Podziękowania : 
    Podziękował: 243
    Doceniono: 546 razy w 239 postach
    Freddy jest nieaktywny

    Domyślnie




    ----


    ----


    100% moich uploadów spakowanych w rarze zawiera dane naprawcze.
    ----

Informacje o wątku

Użytkownicy przeglądający ten wątek

Aktualnie 1 użytkownik(ów) przegląda ten wątek. (0 zarejestrowany(ch) oraz 1 gości)

Podobne wątki

  1. Nine Miles Down [2009][DVDRip][ENG]
    Przez smolo w dziale HQ (High Quality - Wysoka Jakość)
    Odpowiedzi: 1
    Ostatni post / autor: 09-04-2010, 16:17

Uprawnienia umieszczania postów

  • Nie możesz zakładać nowych tematów
  • Nie możesz pisać wiadomości
  • Nie możesz dodawać załączników
  • Nie możesz edytować swoich postów
  •