Aktualizacje seriali
 



Ogłoszenia
UFS - dotacje
Dotacje SMS
Jak korzystać z forumowej szukajki



Pokaż wyniki od 1 do 2 z 2

Wątek: Wisin - Adrenalina ft. Jennifer Lopez, Ricky Martin [2014][WEBRip][1080p][ESP]

  1. #1
    Retired Awatar ZielonY
     Informacje : 
    Dołączył
    Dec 2013
    Skąd
    ja to znam?
    Posty
    7,768
     Statystyki uploadów : 
    Filmy
    144
    Gry
    9
    Programy
    1
    Seriale
    19
    Muzyka
    13
    Porno
    2
    Małe upy
    1
     Łączny upload : 
    P2M UP
    1030.38 GB
     Zapostowane konta : 
    Total CA
    6695
     Podziękowania : 
    Podziękował: 3,130
    Doceniono: 12,929 razy w 267 postach
    ZielonY jest nieaktywny

    m4ud Wisin - Adrenalina ft. Jennifer Lopez, Ricky Martin [2014][WEBRip][1080p][ESP]

    Wisin - Adrenalina ft. Jennifer Lopez, Ricky Martin



    Wykonawca: Wisin
    Gatunek: POP
    Premiera: 2014
    Wytwórnia: Puerto Rican
    Łączny czas: 4:28







    Video
    ID : 1
    Format : AVC
    Format/Info : Advanced Video Codec
    Format profile : High@L4.0
    Format settings, CABAC : Yes
    Format settings, ReFrames : 2 frames
    Codec ID : avc1
    Codec ID/Info : Advanced Video Coding
    Duration : 4mn 27s
    Bit rate : 4 079 Kbps
    Width : 1 920 pixels
    Height : 1 080 pixels
    Display aspect ratio : 16:9
    Frame rate mode : Variable
    Frame rate : 23.976 fps
    Minimum frame rate : 23.974 fps
    Maximum frame rate : 24.543 fps
    Color space : YUV
    Chroma subsampling : 4:2:0
    Bit depth : 8 bits
    Scan type : Progressive
    Bits/(Pixel*Frame) : 0.082
    Stream size : 130 MiB (97%)

    Audio
    ID : 2
    Format : AAC
    Format/Info : Advanced Audio Codec
    Format profile : LC
    Codec ID : 40
    Duration : 4mn 27s
    Bit rate mode : Constant
    Bit rate : 126 Kbps
    Channel(s) : 2 channels
    Channel positions : Front: L R
    Sampling rate : 44.1 KHz
    Compression mode : Lossy
    Stream size : 4.01 MiB (3%)



    Nazwa pliku: Wisin - Adrenalina ft. Jennifer Lopez, Ricky Martin JPatryk dla UFS.PT.rar
    Rozmiar uploadu: 161 MB
    Rozmiar segmentu: 8 MB
    Ilość segmentów: 21
    Liczba mirrorów: 4
    Uploader: JPatryk
    Upload dla: UFS.PT
    Hasło: www.ufs.pt

    Masz problem z programem M4UDownloader? Zajrzyj do działu Poradniki & FAQ tego programu.






    Przepraszamy, ale nie możesz zobaczyć tego tematu. Musisz sie Zarejestrować
    albo Zalogować

    Upload zawiera 10% danych naprawczych!
    Jak korzystać z danych naprawczych? Tutaj znajdziesz poradnik!
    Ostatnio edytowane przez ZielonY ; 06-03-2014 o 16:29 Powód: poprawione :)

    Member > Full Member > UFS Trial > UFS Uploader > Super Uploader > UFS Elite > Super Vip > UFS Elite >Moderator > Super Moderator > Retired

  2. Liczba osób które doceniły autora: 1


  3.    Sponsored Links




  4. #2
    Retired
     Informacje : 
    Dołączył
    Nov 2008
    Posty
    4,217
     Statystyki uploadów : 
    Filmy
    77.5
    Gry
    9
    Programy
    4
    Seriale
    142
     Łączny upload : 
    P2M UP
    812.8 GB
     Podziękowania : 
    Podziękował: 404
    Doceniono: 924 razy w 79 postach
    Diller81 jest nieaktywny

    Domyślnie


    Ostatnio edytowane przez Diller81 ; 07-03-2014 o 08:00

Informacje o wątku

Użytkownicy przeglądający ten wątek

Aktualnie 1 użytkownik(ów) przegląda ten wątek. (0 zarejestrowany(ch) oraz 1 gości)

Uprawnienia umieszczania postów

  • Nie możesz zakładać nowych tematów
  • Nie możesz pisać wiadomości
  • Nie możesz dodawać załączników
  • Nie możesz edytować swoich postów
  •