Aktualizacje seriali
 



Ogłoszenia
UFS - dotacje
Dotacje SMS
Jak korzystać z forumowej szukajki



Pokaż wyniki od 1 do 2 z 2

Wątek: Captain Phillips [2013][WEBRip][ENG]

  1. #1
    Awatar JRK
     Informacje : 
    Dołączył
    Nov 2007
    Posty
    7,433
     Statystyki uploadów : 
    Filmy
    438
    Gry
    51
    Programy
    41
    Seriale
    6
    Muzyka
    40
    Inne
    15
    Małe upy
    1
     Łączny upload : 
    P2M UP
    2723.7 GB
     Zapostowane konta : 
    Total CA
    8275
     Podziękowania : 
    Podziękował: 2,541
    Doceniono: 15,984 razy w 511 postach
    JRK jest nieaktywny

    m4ud Captain Phillips [2013][WEBRip][ENG]

    Kapitan Phillips (2013)
    Captain Phillips


    Produkcja: USA
    Gatunek: Akcja, Przygodowy, Biograficzny, Kryminał, Thriller, Dramat
    Data Premiery: 2013-11-08 (kino), 2013-09-27 (świat)
    Reżyseria: Paul Greengrass
    Scenariusz: Billy Ray
    Czas trwania: 134 minut

    Więcej informacji: http://fdb.pl/film/437990-kapitan-phillips


    7/10 FDB


    To historia uprowadzenia w 2009 roku przez somalijskich piratów kapitana Richarda Philipsa, który dowodził transportowcem MV Maersk Alabama. Kapitan, oddał się w ręce piratów w zamian za gwarancję bezpieczeństwa dla załogi. Został odbity przez oddziały amerykańskie kilka dni później. To pierwszy od 1815 roku przypadek, kiedy to amerykański statek został porwany przez piratów.
    (opis dystrybutora)


    Tom Hanks - Kpt. Richard PhillipsCatherine Keener - Andrea PhillipsMichael Chernus - Shane MurphyMax Martini - Dowódca oddziału SEALJohn Magaro - Dan PhillipsChris Mulkey - John CronanCorey Johnson - Ken QuinnChristopher Stadulis - Charlie Spotter







    General
    Complete name : Captain Phillips 2013 WEBRip x264 AC3-MiLLENiUM.mkv
    Format : Matroska
    Format version : Version 2
    File size : 1.06 GiB
    Duration : 2h 13mn
    Overall bit rate mode : Variable
    Overall bit rate : 1 136 Kbps
    Encoded date : UTC 2013-11-29 15:13:41
    Writing application : mkvmerge v6.5.0 ('Isn't she lovely') built on Oct 20 2013 12:50:05
    Writing library : libebml v1.3.0 + libmatroska v1.4.1

    Video
    ID : 1
    Format : AVC
    Format/Info : Advanced Video Codec
    Format profile : High@L4.1
    Format settings, CABAC : Yes
    Format settings, ReFrames : 3 frames
    Codec ID : V_MPEG4/ISO/AVC
    Duration : 2h 13mn
    Bit rate mode : Variable
    Bit rate : 730 Kbps
    Maximum bit rate : 40.0 Mbps
    Width : 720 pixels
    Height : 384 pixels
    Display aspect ratio : 1.85:1
    Frame rate mode : Constant
    Frame rate : 30.000 fps
    Color space : YUV
    Chroma subsampling : 4:2:0
    Bit depth : 8 bits
    Scan type : Progressive
    Bits/(Pixel*Frame) : 0.088
    Stream size : 698 MiB (64%)
    Writing library : x264 core 140 r2377 1ca7bb9

    Audio
    ID : 2
    Format : AC-3
    Format/Info : Audio Coding 3
    Mode extension : CM (complete main)
    Format settings, Endianness : Big
    Codec ID : A_AC3
    Duration : 2h 13mn
    Bit rate mode : Constant
    Bit rate : 384 Kbps
    Channel(s) : 2 channels
    Channel positions : Front: L R
    Sampling rate : 48.0 KHz
    Bit depth : 16 bits
    Compression mode : Lossy
    Delay relative to video : 7ms
    Stream size : 367 MiB (34%)
    Language : English
    Default : Yes
    Forced : No



    Nazwa pliku: Captain Phillips 2013 WEBRip x264 AC3-MiLLENiUM.mkv
    Rozmiar uploadu: 1086 MB
    Rozmiar segmentu: 8 MB
    Ilość segmentów: 136
    Liczba mirrorów: 7
    Hasło do scalenia: www.mail4us.pl






    Przepraszamy, ale nie możesz zobaczyć tego tematu. Musisz sie Zarejestrować
    albo Zalogować

    Ostatnio edytowane przez Freddy ; 17-01-2014 o 14:33

  2.    Sponsored Links




  3. #2
    ..::nadworny alcoholic ::.. Awatar ozyrys
     Informacje : 
    Dołączył
    Oct 2007
    Skąd
    Internety
    Posty
    666
     Statystyki uploadów : 
    Filmy
    4
    Seriale
    1
    Muzyka
    2
     Łączny upload : 
    P2M UP
    180.75 GB
     Zapostowane konta : 
    Total CA
    19210
     Podziękowania : 
    Podziękował: 16
    Doceniono: 135 razy w 63 postach
    ozyrys jest nieaktywny

    Domyślnie

    niezatwierdzone
    Ostatnio edytowane przez Freddy ; 17-01-2014 o 14:31


Informacje o wątku

Użytkownicy przeglądający ten wątek

Aktualnie 1 użytkownik(ów) przegląda ten wątek. (0 zarejestrowany(ch) oraz 1 gości)

Podobne wątki

  1. 1GB Captain Phillips [2013][WEBRip][x264][AC3][ENG][Subbed CHN]
    Przez Freddy w dziale HQ (High Quality - Wysoka Jakość)
    Odpowiedzi: 1
    Ostatni post / autor: 09-12-2013, 22:24

Uprawnienia umieszczania postów

  • Nie możesz zakładać nowych tematów
  • Nie możesz pisać wiadomości
  • Nie możesz dodawać załączników
  • Nie możesz edytować swoich postów
  •