Aktualizacje seriali
 



Ogłoszenia
UFS - dotacje
Dotacje SMS
Jak korzystać z forumowej szukajki



Pokaż wyniki od 1 do 2 z 2

Wątek: After Earth [2013][WEBRip][ENG]

  1. #1
    Retired Awatar Liuk
     Informacje : 
    Dołączył
    Oct 2007
    Skąd
    nie w UE
    Posty
    1,862
     Statystyki uploadów : 
    Filmy
    128
    Gry
    80
    Programy
    1
    Seriale
    13
    Muzyka
    36
    Porno
    294
    Inne
    1
     Łączny upload : 
    P2M UP
    1101.4 GB
     Zapostowane konta : 
    Total CA
    310
     Podziękowania : 
    Podziękował: 323
    Doceniono: 6,368 razy w 226 postach
    Liuk jest nieaktywny

    m4ud After Earth [2013][WEBRip][ENG]

    1000 lat po Ziemi (2013)
    After Earth


    Produkcja: USA
    Gatunek: Akcja, Przygodowy, Sci-Fi
    Data Premiery: 2013-06-14 (kino), 2013-06-05 (świat), 2013-10-16 (dvd)
    Reżyseria: M. Night Shyamalan
    Scenariusz: Stephen Gaghan, M. Night Shyamalan
    Czas trwania: 100 minut

    Więcej informacji: http://fdb.pl/film/396387-1000-lat-po-ziemi


    6/10 FDB


    Kitai Raige (Jaden Smith) i jego ojciec Cypher (Will Smith) lądują awaryjnie na nieznanej planecie. Ale tak naprawdę jest to Ziemia 1000 lat po tym, gdy katastrofalne wydarzenia zmusiły ludzkość do jej opuszczenia. Ciężko ranny w wypadku Cypher może nie przeżyć tej misji. Kitai wyrusza na niebezpieczną wyprawę - musi odnaleźć nadajnik pokładowy i wysłać prośbę o ratunek. Przed nim niebezpieczne tereny, dziwne zwierzęta, które teraz władają Ziemią i śmiertelnie groźna istota, która uciekła ze statku w czasie lądowania. Aby przetrwać tę najtrudniejszą z prób, ojciec i syn muszą nauczyć się współpracować i ufać sobie nawzajem. (opis dystrybutora)


    Will Smith - Cypher RaigeJaden Smith - Kitai RaigeSophie Okonedo - Faia RaigeZoë Kravitz - Senshi RaigeGlenn Morshower - Kmdr VelanDavid Denman - McQuarrieKristofer Hivju - Szef ochronySacha Dhawan - Pilot







    Nazwa uploadu: After.Earth.2013.WEB-DLRip.XviD-TST
    Nazwa pliku: After.Earth.2013.WEB-DLRip.XviD-TST.avi
    Rozmiar uploadu: 1354
    Rozmiar segmentu: 8 MB
    Ilość segmentów: 170
    Liczba mirrorów: 8
    Hasło do scalenia: www.mail4us.pl

    NFO:
    NFO:
    Source: Russian iTunes

    After.Earth.2013.WEB-DLRip.XviD-TST.avi
    FileSize: 1354.65 Mb
    Play length: 01:40:01.996 (143904 frames)
    Subtitles: Not Present
    Video: 720x304 (2.37:1), 23.976 fps, XviD build 50 ~1691 kbps avg, 0.32 bit/pixel
    Audio: 48 kHz, AC3 Dolby Digital, 2/0 (L,R) ch, ~192 kbps



    General
    Complete name : After.Earth.2013.WEB-DLRip.XviD-TST.avi
    Format : AVI
    Format/Info : Audio Video Interleave
    File size : 1.32 GiB
    Duration : 1h 40mn
    Overall bit rate : 1 893 Kbps
    Writing application : VirtualDubMod 1.5.10.2 (build 2540/release)
    Writing library : VirtualDubMod build 2540/release

    Video
    ID : 0
    Format : MPEG-4 Visual
    Format profile : Advanced Simple@L5
    Format settings, BVOP : 2
    Format settings, QPel : No
    Format settings, GMC : No warppoints
    Format settings, Matrix : Default (MPEG)
    Codec ID : XVID
    Codec ID/Hint : XviD
    Duration : 1h 40mn
    Bit rate : 1 692 Kbps
    Width : 720 pixels
    Height : 304 pixels
    Display aspect ratio : 2.35:1
    Frame rate : 23.976 fps
    Color space : YUV
    Chroma subsampling : 4:2:0
    Bit depth : 8 bits
    Scan type : Progressive
    Compression mode : Lossy
    Bits/(Pixel*Frame) : 0.322
    Stream size : 1.18 GiB (89%)
    Writing library : XviD 1.2.1 (UTC 2008-12-04)

    Audio
    ID : 1
    Format : AC-3
    Format/Info : Audio Coding 3
    Mode extension : CM (complete main)
    Codec ID : 2000
    Duration : 1h 40mn
    Bit rate mode : Constant
    Bit rate : 192 Kbps
    Channel(s) : 2 channels
    Channel positions : Front: L R
    Sampling rate : 48.0 KHz
    Bit depth : 16 bits
    Compression mode : Lossy
    Stream size : 137 MiB (10%)
    Alignment : Split accross interleaves
    Interleave, duration : 42 ms (1.00 video frame)
    Interleave, preload duration : 500 ms







    Przepraszamy, ale nie możesz zobaczyć tego tematu. Musisz sie Zarejestrować
    albo Zalogować

    Ostatnio edytowane przez Azuel ; 30-01-2014 o 00:59

  2.    Sponsored Links




  3. #2
    Awatar JRK
     Informacje : 
    Dołączył
    Nov 2007
    Posty
    7,433
     Statystyki uploadów : 
    Filmy
    438
    Gry
    51
    Programy
    41
    Seriale
    6
    Muzyka
    40
    Inne
    15
    Małe upy
    1
     Łączny upload : 
    P2M UP
    2723.7 GB
     Zapostowane konta : 
    Total CA
    8275
     Podziękowania : 
    Podziękował: 2,541
    Doceniono: 15,980 razy w 511 postach
    JRK jest nieaktywny

    Domyślnie

    Ostatnio edytowane przez Azuel ; 30-01-2014 o 00:58

Informacje o wątku

Użytkownicy przeglądający ten wątek

Aktualnie 1 użytkownik(ów) przegląda ten wątek. (0 zarejestrowany(ch) oraz 1 gości)

Uprawnienia umieszczania postów

  • Nie możesz zakładać nowych tematów
  • Nie możesz pisać wiadomości
  • Nie możesz dodawać załączników
  • Nie możesz edytować swoich postów
  •