Aktualizacje seriali
 



Ogłoszenia
UFS - dotacje
Dotacje SMS
Jak korzystać z forumowej szukajki



Pokaż wyniki od 1 do 2 z 2

Wątek: The Magic of Belle Isle [2012][DVDRip][ENG]

  1. #1
    VIP Awatar Bull
     Informacje : 
    Dołączył
    Dec 2007
    Posty
    392
     Statystyki uploadów : 
    Filmy
    129
    Gry
    11
    Seriale
    1
    Porno
    7
     Łączny upload : 
    P2M UP
    319.9 GB
     Podziękowania : 
    Podziękował: 470
    Doceniono: 102 razy w 25 postach
    Bull jest nieaktywny

    m4ud The Magic of Belle Isle [2012][DVDRip][ENG]

    The Magic of Belle Isle (2012)


    Produkcja: USA
    Gatunek: Komedia, Dramat
    Data Premiery: 01.06.2012 - Świat
    Reżyseria: Rob Reiner
    Scenariusz: Guy Thomas, Rob Reiner
    Czas trwania: 109 minut

    Więcej informacji: http://fdb.pl/film/398880-the-magic-of-belle-isle


    10/10 FDB


    Film opowiada historię pisarza poruszającego się na wózku inwalidzkim, który wskutek poważnych problemów z alkoholem, stracił zapał do pisania. Mężczyzna postanawia wprowadzić się do małego miasteczka, gdzie odzyskuje wenę, za sprawą kobiety oraz jej trójki dzieci.


    Morgan Freeman - Monte Wildhorn Virginia Madsen - Pani O"Neil Madeline Carroll - Willow O"Neil Emma Fuhrmann - Finnegan O"Neil Nicolette Pierini - Flora O"Neil Kenan Thompson -
    Fred Willard - Al Kaiser Ash Christian - Carl

    Trailer



    The Magic of Belle Isle 2012 HDRip XVID HS

    Format: AVI
    Format/Info: Audio Video Interleave
    Format profile: OpenDML
    File size: 1.59 GiB
    Duration: 1h 49mn
    Overall bit rate: 2 077 Kbps
    Writing application: Lavf52.103.0

    Video
    ID: 1
    Format: MPEG-4 Visual
    Format profile: Simple@L1
    Format settings, BVOP: No
    Format settings, QPel: No
    Format settings, GMC: No warppoints
    Format settings, Matrix: Default (H.263)
    Codec ID: XVID
    Duration: 1h 49mn
    Bit rate: 1 936 Kbps
    Width: 640 pixels
    Height: 346 pixels
    Display aspect ratio: 1.85:1
    Frame rate: 23.976 fps
    Color space: YUV
    Chroma subsampling: 4:2:0
    Bit depth: 8 bits
    Scan type: Progressive
    Compression mode: Lossy
    Bits/(Pixel*Frame): 0.365
    Stream size: 1.48 GiB (93%)
    Writing library: Lavc52.116.0

    Audio
    ID: 0
    Format: MPEG Audio
    Format version: Version 1
    Format profile: Layer 3
    Mode: Joint stereo
    Codec ID: 55
    Codec ID/Hint: MP3
    Duration: 1h 49mn
    Bit rate mode: Constant
    Bit rate: 128 Kbps
    Channel(s): 2 channels
    Sampling rate: 44.1 KHz
    Compression mode: Lossy
    Stream size: 100 MiB (6%)
    Alignment: Aligned on interleaves
    Interleave, duration: 42 ms (1.00 video frame)
    Writing library: LAME3.98.4


    Nazwa uploadu: The Magic of Belle Isle 2012 HDRip XVID HS.part1
    Nazwa pliku: The Magic of Belle Isle 2012 HDRip XVID HS.part1.rar
    Rozmiar uploadu: 950 MB
    Rozmiar segmentu: 8 MB
    Ilość segmentów: 119
    Liczba mirrorów: 6

    Nazwa uploadu: The Magic of Belle Isle 2012 HDRip XVID HS.part2
    Nazwa pliku: The Magic of Belle Isle 2012 HDRip XVID HS.part2.rar
    Rozmiar uploadu: 845 MB
    Rozmiar segmentu: 8 MB
    Ilość segmentów: 106
    Liczba mirrorów: 6
    Hasło do scalenia: www.mail4us.pl






    Przepraszamy, ale nie możesz zobaczyć tego tematu. Musisz sie Zarejestrować
    albo Zalogować

    Ostatnio edytowane przez jeep ; 04-10-2015 o 00:59

  2.    Sponsored Links




  3. #2
    Retired
     Informacje : 
    Dołączył
    Feb 2011
    Posty
    2,089
     Statystyki uploadów : 
     Łączny upload : 
    P2M UP
    2198 GB
     Zapostowane konta : 
    Total CA
    890
     Podziękowania : 
    Podziękował: 20
    Doceniono: 425 razy w 132 postach
    bodzio pl jest nieaktywny

    Domyślnie


Informacje o wątku

Użytkownicy przeglądający ten wątek

Aktualnie 1 użytkownik(ów) przegląda ten wątek. (0 zarejestrowany(ch) oraz 1 gości)

Podobne wątki

  1. The Magic of Belle Isle [2012][HDRip][ENG]
    Przez eMPeK w dziale HQ (High Quality - Wysoka Jakość)
    Odpowiedzi: 1
    Ostatni post / autor: 09-07-2012, 09:08

Uprawnienia umieszczania postów

  • Nie możesz zakładać nowych tematów
  • Nie możesz pisać wiadomości
  • Nie możesz dodawać załączników
  • Nie możesz edytować swoich postów
  •