Aktualizacje seriali
 



Ogłoszenia
UFS - dotacje
Dotacje SMS
Jak korzystać z forumowej szukajki



Pokaż wyniki od 1 do 7 z 7

Wątek: V/H/S [2012][BRRip][AC3][ENG][Napisy PL]

  1. #1
    Gdzie są pieniądze za las?! Awatar Stachu
     Informacje : 
    Dołączył
    Oct 2007
    Skąd
    Köln
    Posty
    9,239
     Statystyki uploadów : 
    Filmy
    892
    Gry
    597
    Programy
    14
    Seriale
    297
    Muzyka
    87
    Porno
    69
    Inne
    66
    Małe upy
    12
     Łączny upload : 
    P2M UP
    8184.15 GB
     Zapostowane konta : 
    Total CA
    14861
     Podziękowania : 
    Podziękował: 248
    Doceniono: 36,195 razy w 1,147 postach
     Total HTTP Upload : 
    HTTP UP: 0.7 GB
    Stachu jest nieaktywny

    mh V/H/S [2012][BRRip][AC3][ENG][Napisy PL]

    V/H/S



    Gatunek: Horror
    Produkcja: USA
    Premiera: 31 sierpnia 2012 (świat) 2012-08-31
    Reżyseria: David Bruckner, Glenn McQuaid, Radio Silence, Joe Swanberg, Ti West, Adam Wingard
    Scenariusz: Simon Barrett, David Bruckner, Glenn McQuaid, Radio Silence, Nicholas Tecosky, Ti West
    Ocena: 5,8 / 10
    Zdjęcia: Andrew Droz Palermo , Victoria K. Warren



    Grupa złodziejaszków zostaje wynajęta, do odzyskania kolekcji kaset wideo, które znajdują się w zrujnowanym domu na wsi. Na pozór proste zadanie szybko zmienia się w spory problem. Kiedy trafią do żyjącego pokoju, odnajdują trupa siedzącego przed panelem kontrolującym serię staromodnych ekranów telewizyjnych i stertą leżących wokół kaset wideo. Każda z nich zawiera przerażające nagranie...



    Gary - Calvin Reeder
    Brad - Lane Hughes
    Rock - Adam Wingard
    Lily - Hannah Fierman
    Shane - Mike Donlan
    Patrick - Joe Sykes
    Clint - Drew Sawyer
    Lisa - Jas Sams









    Plik:
    Video:
    Audio:Video
    ID : 0
    Format : MPEG-4 Visual
    Format profile : Advanced Simple@L5
    Format settings, BVOP : 1
    Format settings, QPel : No
    Format settings, GMC : No warppoints
    Format settings, Matrix : Default (H.263)
    Codec ID : XVID
    Codec ID/Hint : XviD
    Duration : 1h 56mn
    Bit rate : 1 497 Kbps
    Width : 720 pixels
    Height : 400 pixels
    Display aspect ratio : 16:9
    Frame rate : 23.976 fps
    Color space : YUV
    Chroma subsampling : 4:2:0
    Bit depth : 8 bits
    Scan type : Progressive
    Compression mode : Lossy
    Bits/(Pixel*Frame) : 0.217
    Stream size : 1.21 GiB (77%)
    Writing library : XviD 1.2.1 (UTC 2008-12-04)

    Audio
    ID : 1
    Format : AC-3
    Format/Info : Audio Coding 3
    Mode extension : CM (complete main)
    Format settings, Endianness : Big
    Codec ID : 2000
    Duration : 1h 56mn
    Bit rate mode : Constant
    Bit rate : 448 Kbps
    Channel(s) : 6 channels
    Channel positions : Front: L C R, Side: L R, LFE
    Sampling rate : 48.0 KHz
    Bit depth : 16 bits
    Compression mode : Lossy
    Stream size : 372 MiB (23%)
    Alignment : Split accross interleaves
    Interleave, duration : 42 ms (1.00 video frame)
    Interleave, preload duration : 500 ms




    Nazwa pliku: V.H.S.2012.480p.BRRip.XviD.AC3-WiZARDS.avi
    Rozmiar Pliku: 1,59 GB
    Rozmiar segmentu: 9,00 MB
    Liczba segmentów: 181
    Liczba mirrorów: 11

    Hasło: www.ufs.pl

    Napisy PL
    http://hostuje.net/file.php?id=b23bf...f979d740f64f38

    Masz problem z programem MoorHunt? Zajrzyj do działu Poradniki & FAQ tego programu.
    Zalecamy pobieranie za pomocą MailShare







    Przepraszamy, ale nie możesz zobaczyć tego tematu. Musisz sie Zarejestrować
    albo Zalogować

    Upload wykonany w MH 0.6.7.2
    Ostatnio edytowane przez Stachu ; 12-11-2012 o 20:50
    Member -> Full Member -> UFS Trial -> UFS Uploader -> UFS Elite -> Moderator -> UFS Elite -> Super Vip -> Elite Kreator -> Elite Uploader -> Super Vip -> Elite Uploader -> Super Vip
    Intel Core i5 2500 3.3GHz
    SilentiumPC
    Asus H61
    Kingston HyperX 16GB DDR3 1600MHz
    Seagate 500GB
    Toshiba 320GB
    Seagate Desktop HDD 2TB
    GoodRam SSD 120GB
    Gigabyte GeForce 1060 6GB XTreme OC
    Nagrywarka Asus
    Thermaltake Modular SE 530W
    Zalman 3 Plus White



  2. Liczba osób które doceniły autora: 1


  3.    Sponsored Links




  4. #2
    Retired Awatar SilentDeVir
     Informacje : 
    Dołączył
    Oct 2007
    Skąd
    Krzeszów
    Posty
    2,370
     Statystyki uploadów : 
    Filmy
    128
    Gry
    44
    Seriale
    15
    Muzyka
    5
    Porno
    21
    Inne
    2
    Małe upy
    1
     Łączny upload : 
    P2M UP
    777.45 GB
     Zapostowane konta : 
    Total CA
    25320
     Podziękowania : 
    Podziękował: 305
    Doceniono: 420 razy w 115 postach
    SilentDeVir jest nieaktywny

    Domyślnie


  5. #3
    Full Member
     Informacje : 
    Dołączył
    Sep 2008
    Posty
    445
     Podziękowania : 
    Podziękował: 373
    Thanked 1 Time in 1 Post
    deviion1 jest nieaktywny

    Domyślnie

    coś nie idzie, uruchamiam za pomocą vlc i nie uruchamia się, zero komunikatu o jakimkolwiek błędzie, za pomocą bestplayera:
    Nie można odtworzyć pliku. Ten format nie jest obsługiwany. [0x80040265]

    [FileInfo]
    FileExtension=.avi
    FileSize=1702791168

    [FilterRenderError]
    CLSID="{E436EBB5-524F-11CE-9F53-0020AF0BA770}"
    Filter="D:\download\V.H.S.2012.480p.BRRip.XviD.AC3-WiZARDS.avi"
    Pin="Output"
    Major Type: Stream - Sub Type: Null Format: Null
    Major Type: Stream - Sub Type: Null Format: Null
    , kodeki raczej mam (k lite), ściągane za pomocą mailshare, ściągać jeszcze raz? czy to coś u mnie w kodekach?

    edit: okazuje się że przy ściąganiu mailsharem wyskakuje komunikat z błędem w crc, może to ma jakieś powiązanie? (niestety za szybko się schował żeby zdążył zobaczyć co tam było napisane)
    Ostatnio edytowane przez deviion1 ; 15-11-2012 o 16:12

  6. #4
    lokowka
    Guest
     Podziękowania : 

    Domyślnie

    Mam niestety dokładnie to samo, MoorHunt sie wysypuje po 1 minucie od rozpoczęcia tego filmu, szkoda to to podobno bardzo ciekawy Horror

  7. #5
    Full Member
     Informacje : 
    Dołączył
    Mar 2011
    Posty
    1
     Podziękowania : 
    Podziękował: 0
    Doceniono: 0 razy w 0 postach
    Baszun jest nieaktywny

    Domyślnie

    Nie mozna sciaganc u mnie ;[

  8. #6
    pajo
    Guest
     Podziękowania : 

    Domyślnie

    0% u mnie moze zaduzo ludzi ???

  9. #7
    Full Member
     Informacje : 
    Dołączył
    Feb 2008
    Skąd
    Opolskie =]
    Posty
    22
     Podziękowania : 
    Podziękował: 14
    Doceniono: 0 razy w 0 postach
    POU jest nieaktywny

    Domyślnie

    Segment 1 i 3 zdublowany i pobiera je cały czas od nowa.
    Można to poprawić ?
    Ostatnio edytowane przez POU ; 17-11-2012 o 15:30

Informacje o wątku

Użytkownicy przeglądający ten wątek

Aktualnie 1 użytkownik(ów) przegląda ten wątek. (0 zarejestrowany(ch) oraz 1 gości)

Podobne wątki

  1. 0.7GB Hit and Run [2012][BRRip][ENG][Napisy PL]
    Przez Pan Tadeusz w dziale HQ (High Quality - Wysoka Jakość)
    Odpowiedzi: 1
    Ostatni post / autor: 13-01-2013, 11:16
  2. That's My Boy [2012][BRRip][AC3][ENG][Napisy PL]
    Przez Kingpin w dziale HQ (High Quality - Wysoka Jakość)
    Odpowiedzi: 1
    Ostatni post / autor: 30-09-2012, 13:01
  3. Brake [2012][BRRip][AC3][ENG][Napisy PL]
    Przez adam12 w dziale HQ (High Quality - Wysoka Jakość)
    Odpowiedzi: 2
    Ostatni post / autor: 09-06-2012, 15:13
  4. Seven Below [2012][BRRip][AC3][ENG][Napisy PL]
    Przez adam12 w dziale HQ (High Quality - Wysoka Jakość)
    Odpowiedzi: 1
    Ostatni post / autor: 08-05-2012, 12:32

Uprawnienia umieszczania postów

  • Nie możesz zakładać nowych tematów
  • Nie możesz pisać wiadomości
  • Nie możesz dodawać załączników
  • Nie możesz edytować swoich postów
  •