Aktualizacje seriali
 



Ogłoszenia
UFS - dotacje
Dotacje SMS
Jak korzystać z forumowej szukajki



Pokaż wyniki od 1 do 2 z 2

Wątek: All the President's Men [1976][DVDRip][ENG]

  1. #1
    SuperVIP Pink_ SuperVIP Awatar PoziomeQ
     Informacje : 
    Dołączył
    Jan 2010
    Posty
    1,186
     Statystyki uploadów : 
    Filmy
    82
    Gry
    134
    Programy
    9
    Seriale
    31
    Muzyka
    18
    Porno
    4
    Inne
    7
    Małe upy
    1
     Łączny upload : 
    P2M UP
    1308.39 GB
     Zapostowane konta : 
    Total CA
    2915
     Podziękowania : 
    Podziękował: 11
    Doceniono: 261 razy w 108 postach
    PoziomeQ jest nieaktywny

    mh All the President's Men [1976][DVDRip][ENG]

    All the President's Men
    Wszyscy ludzie prezydenta




    Gatunek: Dramat, Thriller, Polityczny
    Produkcja: USA
    Premiera: 4 kwietnia 1976 (świat) 1976-04-04
    Reżyseria: Alan J. Pakula
    Scenariusz: William Goldman
    Ocena: 7,8 / 10
    Muzyka: David Shire
    Zdjęcia: Gordon Willis
    Dystrybucja: Warner Home Video



    Dwóch dziennikarzy Washington Post na tropie afery, która pozbawiła Nixona prezydentury.



    Bob Woodward - Robert Redford
    Carl Bernstein - Dustin Hoffman
    Harry M. Rosenfeld - Jack Warden
    Howard Simons - Martin Balsam
    "Głębokie Gardło" - Hal Holbrook
    Ben Bradlee - Jason Robards
    Judy Hoback, księgowa - Jane Alexander
    Debbie Sloan - Meredith Baxter









    Format/Info : Audio Video Interleave
    File size : 692 MiB
    Duration : 2h 12mn
    Overal bit rate : 730 Kbps

    Video
    Format : MPEG-4 Visual
    Format profile : Streaming Video@L1
    Format settings, BVOP : Yes
    Format settings, QPel : No
    Format settings, GMC : No warppoints
    Format settings, Matrix : Default
    Muxing mode : Packet Bitstream
    Codec ID : XVID
    Codec ID/Hint : XviD
    Duration : 2h 12mn
    Bit rate : 592 Kbps
    Width : 720 pixels
    Height : 384 pixels
    Display aspect ratio : 1.875
    Frame rate : 25.000 fps
    Resolution : 8 bits
    Colorimetry : 4:2:0
    Scan type : Progressive
    Bits/(Pixel*Frame) : 0.086
    Stream size : 562 MiB
    Writing library : XviD 1.2.0.dev47 (UTC 2006-11-01)

    Audio
    Format : MPEG Audio
    Format version : Version 1
    Format profile : Layer 3
    Codec ID : 55
    Codec ID/Hint : MP3
    Duration : 2h 12mn
    Bit rate mode : Constant
    Bit rate : 128 Kbps
    Minimum bit rate : 128 Kbps
    Channel(s) : 2 channels
    Sampling rate : 48.0 KHz
    Resolution : 16 bits
    Stream size : 121 MiB
    Writing library : LAME3.97
    Encoding settings : CBR



    Nazwa pliku: All the President's Men (1976).avi
    Data wygenerowania HashCode: 11/8/2012 7:09:41 PM
    Rozmiar Pliku: 697,66 MB
    CRC32: 08A21306
    Rozmiar segmentu: 9,00 MB
    Liczba segmentów: 78
    Liczba mirrorów: 6
    Hasło: www.ufs.pl

    Masz problem z programem MoorHunt? Zajrzyj do działu Poradniki & FAQ tego programu.
    Zalecamy pobieranie za pomocą MailShare







    Przepraszamy, ale nie możesz zobaczyć tego tematu. Musisz sie Zarejestrować
    albo Zalogować

    Upload wykonany w MH 0.6.7.2

  2.    Sponsored Links




  3. #2
    Awatar kejo
     Informacje : 
    Dołączył
    Mar 2008
    Skąd
    się biorą dzieci?
    Posty
    4,842
     Statystyki uploadów : 
    Filmy
    288
    Gry
    99
    Programy
    1
    Seriale
    65
    Muzyka
    286
    Inne
    22
    Małe upy
    15
     Łączny upload : 
    P2M UP
    1548.35 GB
     Zapostowane konta : 
    Total CA
    9350
     Podziękowania : 
    Podziękował: 650
    Doceniono: 15,786 razy w 458 postach
    kejo jest nieaktywny

    Domyślnie

    niezatwierdzone
    Ostatnio edytowane przez kejo ; 09-11-2012 o 21:48





    Member [25.03.2008]
    UFS Trial [02.07.2010]
    UFS Kreator [18.07.2010]
    UFS Uploader [19.12.2010]
    UFS Elite [15.05.2011]
    Super Vip [19.03.2012]
    UFS Elite [01.10.2012]
    Moderator [28.10.2012]
    Super Moderator [07.04.2013]
    Retired [29.09.2013]
    UFS Elite [28.12.2013]
    Elite Kreator [08.04.2014]
    Retired [11.05.2014]




Informacje o wątku

Użytkownicy przeglądający ten wątek

Aktualnie 1 użytkownik(ów) przegląda ten wątek. (0 zarejestrowany(ch) oraz 1 gości)

Podobne wątki

  1. 0.7GB Assassination of a High School President [2008][DvDRip][SUB-PL]
    Przez Madry w dziale HQ (High Quality - Wysoka Jakość)
    Odpowiedzi: 1
    Ostatni post / autor: 07-10-2009, 05:26

Uprawnienia umieszczania postów

  • Nie możesz zakładać nowych tematów
  • Nie możesz pisać wiadomości
  • Nie możesz dodawać załączników
  • Nie możesz edytować swoich postów
  •