Aktualizacje seriali
 



Ogłoszenia
UFS - dotacje
Dotacje SMS
Jak korzystać z forumowej szukajki



Pokaż wyniki od 1 do 2 z 2

Wątek: Ted [2012][BRRip][AC3][ENG]

  1. #1
    Gdzie są pieniądze za las?! Awatar Stachu
     Informacje : 
    Dołączył
    Oct 2007
    Skąd
    Köln
    Posty
    9,239
     Statystyki uploadów : 
    Filmy
    892
    Gry
    597
    Programy
    14
    Seriale
    297
    Muzyka
    87
    Porno
    69
    Inne
    66
    Małe upy
    12
     Łączny upload : 
    P2M UP
    8184.15 GB
     Zapostowane konta : 
    Total CA
    14861
     Podziękowania : 
    Podziękował: 248
    Doceniono: 36,199 razy w 1,147 postach
     Total HTTP Upload : 
    HTTP UP: 0.7 GB
    Stachu jest nieaktywny

    mh Ted [2012][BRRip][AC3][ENG]

    Ted



    Gatunek: Fantasy, Komedia
    Produkcja: USA
    Premiera: 7 września 2012 (Polska) 2012-09-07, 29 czerwca 2012 (świat) 2012-06-29
    Reżyseria: Seth MacFarlane
    Scenariusz: Seth MacFarlane, Alec Sulkin, Wellesley Wild
    Ocena: 7,0 / 10
    Muzyka: Walter Murphy
    Zdjęcia: Michael Barrett
    Dystrybucja: United International Pictures Sp z o.o.



    John ma 35 lat i chce się wreszcie ustatkować. Pewnego dnia ożywa jego pluszowy miś z dzieciństwa, który zaczyna sprowadzać go na złą drogę.



    John Bennett - Mark Wahlberg
    Lori Collins - Mila Kunis
    Ted - Seth MacFarlane
    Rex - Joel McHale
    Donny - Giovanni Ribisi
    Guy - Patrick Warburton
    Thomas - Matt Walsh
    Tami-Lynn - Jessica Barth









    Video
    ID : 0
    Format : MPEG-4 Visual
    Format profile : Advanced Simple@L5
    Format settings, BVOP : 2
    Format settings, QPel : No
    Format settings, GMC : No warppoints
    Format settings, Matrix : Default (H.263)
    Codec ID : XVID
    Codec ID/Hint : XviD
    Duration : 1h 46mn
    Bit rate : 1 704 Kbps
    Width : 720 pixels
    Height : 384 pixels
    Display aspect ratio : 1.85:1
    Frame rate : 23.976 fps
    Color space : YUV
    Chroma subsampling : 4:2:0
    Bit depth : 8 bits
    Scan type : Progressive
    Compression mode : Lossy
    Bits/(Pixel*Frame) : 0.257
    Stream size : 1.26 GiB (79%)
    Writing library : XviD 1.2.1 (UTC 2008-12-04)

    Audio
    ID : 1
    Format : AC-3
    Format/Info : Audio Coding 3
    Mode extension : CM (complete main)
    Format settings, Endianness : Big
    Codec ID : 2000
    Duration : 1h 46mn
    Bit rate mode : Constant
    Bit rate : 448 Kbps
    Channel(s) : 6 channels
    Channel positions : Front: L C R, Side: L R, LFE
    Sampling rate : 48.0 KHz
    Bit depth : 16 bits
    Compression mode : Lossy
    Stream size : 340 MiB (21%)
    Alignment : Split accross interleaves
    Interleave, duration : 42 ms (1.00 video frame)
    Interleave, preload duration : 500 ms





    Nazwa pliku: Ted.2012.480p.BRRip.XviD.AC3-WiZARDS.avi
    Rozmiar Pliku: 1,60 GB
    Rozmiar segmentu: 9,00 MB
    Liczba segmentów: 183
    Liczba mirrorów: 11

    Hasło: www.ufs.pl

    Masz problem z programem MoorHunt? Zajrzyj do działu Poradniki & FAQ tego programu.
    Zalecamy pobieranie za pomocą MailShare







    Przepraszamy, ale nie możesz zobaczyć tego tematu. Musisz sie Zarejestrować
    albo Zalogować

    Upload wykonany w MH 0.6.7.2
    Ostatnio edytowane przez Stachu ; 09-11-2012 o 23:51
    Member -> Full Member -> UFS Trial -> UFS Uploader -> UFS Elite -> Moderator -> UFS Elite -> Super Vip -> Elite Kreator -> Elite Uploader -> Super Vip -> Elite Uploader -> Super Vip
    Intel Core i5 2500 3.3GHz
    SilentiumPC
    Asus H61
    Kingston HyperX 16GB DDR3 1600MHz
    Seagate 500GB
    Toshiba 320GB
    Seagate Desktop HDD 2TB
    GoodRam SSD 120GB
    Gigabyte GeForce 1060 6GB XTreme OC
    Nagrywarka Asus
    Thermaltake Modular SE 530W
    Zalman 3 Plus White



  2.    Sponsored Links




  3. #2
    Awatar kejo
     Informacje : 
    Dołączył
    Mar 2008
    Skąd
    się biorą dzieci?
    Posty
    4,842
     Statystyki uploadów : 
    Filmy
    288
    Gry
    99
    Programy
    1
    Seriale
    65
    Muzyka
    286
    Inne
    22
    Małe upy
    15
     Łączny upload : 
    P2M UP
    1548.35 GB
     Zapostowane konta : 
    Total CA
    9350
     Podziękowania : 
    Podziękował: 650
    Doceniono: 15,786 razy w 458 postach
    kejo jest nieaktywny

    Domyślnie

    niezatwierdzone
    Ostatnio edytowane przez kejo ; 09-11-2012 o 21:52





    Member [25.03.2008]
    UFS Trial [02.07.2010]
    UFS Kreator [18.07.2010]
    UFS Uploader [19.12.2010]
    UFS Elite [15.05.2011]
    Super Vip [19.03.2012]
    UFS Elite [01.10.2012]
    Moderator [28.10.2012]
    Super Moderator [07.04.2013]
    Retired [29.09.2013]
    UFS Elite [28.12.2013]
    Elite Kreator [08.04.2014]
    Retired [11.05.2014]




Informacje o wątku

Użytkownicy przeglądający ten wątek

Aktualnie 1 użytkownik(ów) przegląda ten wątek. (0 zarejestrowany(ch) oraz 1 gości)

Podobne wątki

  1. 0.7GB Bel Ami [2012][BRRip][ENG]
    Przez JankieL w dziale HQ (High Quality - Wysoka Jakość)
    Odpowiedzi: 3
    Ostatni post / autor: 18-05-2012, 18:39

Uprawnienia umieszczania postów

  • Nie możesz zakładać nowych tematów
  • Nie możesz pisać wiadomości
  • Nie możesz dodawać załączników
  • Nie możesz edytować swoich postów
  •