Aktualizacje seriali
 



Ogłoszenia
UFS - dotacje
Dotacje SMS
Jak korzystać z forumowej szukajki



Pokaż wyniki od 1 do 2 z 2

Wątek: The Good Doctor [2011][BRRip][AC3][ENG]

  1. #1
    Retired Awatar Look
     Informacje : 
    Dołączył
    Jan 2008
    Posty
    4,309
     Statystyki uploadów : 
    Filmy
    595
    Gry
    59
    Programy
    1
    Seriale
    72
    Muzyka
    13
    Porno
    1
    Inne
    4
     Łączny upload : 
    P2M UP
    2456.2 GB
     Zapostowane konta : 
    Total CA
    8670
     Podziękowania : 
    Podziękował: 974
    Doceniono: 20,197 razy w 324 postach
    Look jest nieaktywny

    mh The Good Doctor [2011][BRRip][AC3][ENG]

    The Good Doctor
    Dobry doktor




    Produkcja: USA
    Data Premiery: 2011-04-23 (świat)
    Reżyseria: Lance Daly
    Scenariusz: John Enbom
    Czas trwania: 93 minut
    Gatunek: Thriller | Dramat
    Ocena: 6.0



    Doktor Martin Ploeck przez całe życie pragnął zdobyć szacunek u ludzi. Pewnego dnia trafiła do niego osiemnastoletnia pacjentka cierpiąca na infekcję nerek. Diana sprawiła, że wreszcie wzrosło jego poczucie własnej wartości, więc kiedy zaczęła odzyskiwać zdrowie, nie mógł pozwolić na to, by go opuściła. Doktor Ploeck postanawia zatrzymać dziewczynę w szpitalu, blisko siebie, nawet za cenę działania na szkodę jej zdrowia.



    Dr Martin Ploeck - Orlando Bloom
    Diane Nixon - Riley Keough
    Theresa, pielęgniarka - Taraji P. Henson
    Dr Waylans - Rob Morrow
    Jimmy - Michael Peña







    Format : AVI
    Format/Info : Audio Video Interleave
    File size : 1.21 GiB
    Duration : 1h 30mn
    Overall bit rate : 1 909 Kbps
    Writing application : VirtualDubMod 1.5.10.2 (build 2540/release)
    Writing library : VirtualDubMod build 2540/release

    Video
    ID : 0
    Format : MPEG-4 Visual
    Format profile : Advanced Simple@L4
    Format settings, BVOP : Yes
    Format settings, QPel : No
    Format settings, GMC : No warppoints
    Format settings, Matrix : Default (H.263)
    Codec ID : XVID
    Codec ID/Hint : XviD
    Duration : 1h 30mn
    Bit rate : 1 452 Kbps
    Width : 700 pixels
    Height : 376 pixels
    Display aspect ratio : 1.862
    Frame rate : 23.976 fps
    Resolution : 8 bits
    Colorimetry : 4:2:0
    Scan type : Progressive
    Bits/(Pixel*Frame) : 0.230
    Stream size : 943 MiB (76%)
    Writing library : XviD 1.2.1 (UTC 2008-12-04)

    Audio
    ID : 1
    Format : AC-3
    Format/Info : Audio Coding 3
    Codec ID : 2000
    Duration : 1h 30mn
    Bit rate mode : Constant
    Bit rate : 448 Kbps
    Channel(s) : 6 channels
    Channel positions : Front: L C R, Surround: L R, LFE
    Sampling rate : 48.0 KHz
    Stream size : 291 MiB (23%)
    Alignment : Split accross interleaves
    Interleave, duration : 42 ms (1.00 video frame)
    Interleave, preload duration : 500 ms



    Nazwa pliku: The Good Doctor 2011 BRRip Xvid AC3 TVAL.avi
    Ilość plików na koncie: 178
    Rozmiar segmentu: 7MB
    Wielkość uploadu: 1,21GB
    Ilość mirrorów: 9
    Hasło: www.ufs.pl

    Masz problem z programem MoorHunt? Zajrzyj do działu Poradniki & FAQ tego programu.
    Zalecamy pobieranie za pomocą MailShare







    Przepraszamy, ale nie możesz zobaczyć tego tematu. Musisz sie Zarejestrować
    albo Zalogować

    Upload wykonany w MH 0.6.7.2


    MEMBER > FULL MEMBER > UFS TRIAL > KREATOR > FULL MEMBER > UFS TRIAL > UPLOADER > SUPER UPLOADER > UFS ELITE>MODERATOR>


    +


  2.    Sponsored Links




  3. #2
    Masterix Awatar Santi
     Informacje : 
    Dołączył
    Oct 2008
    Posty
    4,185
     Statystyki uploadów : 
    Filmy
    646
    Gry
    46
    Programy
    1
    Seriale
    40
    Muzyka
    3
    Inne
    3
     Łączny upload : 
    P2M UP
    1136.7 GB
     Zapostowane konta : 
    Total CA
    1980
     Podziękowania : 
    Podziękował: 619
    Doceniono: 25,434 razy w 335 postach
    Santi jest nieaktywny

    Domyślnie

    niezatwierdzone



    !! Wzajemny Szacunek podstawą sprawnego działania Forum !!

Informacje o wątku

Użytkownicy przeglądający ten wątek

Aktualnie 1 użytkownik(ów) przegląda ten wątek. (0 zarejestrowany(ch) oraz 1 gości)

Podobne wątki

  1. 0.7GB Good Night and Good Luck [2005][DVDRIP]
    Przez BodZio88_PL w dziale HQ (High Quality - Wysoka Jakość)
    Odpowiedzi: 1
    Ostatni post / autor: 11-05-2009, 18:54

Uprawnienia umieszczania postów

  • Nie możesz zakładać nowych tematów
  • Nie możesz pisać wiadomości
  • Nie możesz dodawać załączników
  • Nie możesz edytować swoich postów
  •