Aktualizacje seriali
 



Ogłoszenia
UFS - dotacje
Dotacje SMS
Jak korzystać z forumowej szukajki



Pokaż wyniki od 1 do 2 z 2

Wątek: Being Flynn [2012][BRRip][AC3][ENG]

  1. #1
    Retired Awatar Look
     Informacje : 
    Dołączył
    Jan 2008
    Posty
    4,304
     Statystyki uploadów : 
    Filmy
    595
    Gry
    59
    Programy
    1
    Seriale
    72
    Muzyka
    13
    Porno
    1
    Inne
    4
     Łączny upload : 
    P2M UP
    2456.2 GB
     Zapostowane konta : 
    Total CA
    8670
     Podziękowania : 
    Podziękował: 969
    Doceniono: 20,197 razy w 324 postach
    Look jest nieaktywny

    mh Being Flynn [2012][BRRip][AC3][ENG]

    Being Flynn



    Produkcja: USA
    Data Premiery: 2012
    Reżyseria: Paul Weitz
    Scenariusz: Paul Weitz
    Gatunek: Komedia | Dramat




    Film oparty na podstawie bestsellerowej autobiografii Nicka Flynna, który opisuje w niej swoje kontakty z ojcem Jonathanem. Wiecznie pijany i sprawiający kłopoty, z kartoteką kryminalną, choć niewątpliwie inteligentny człowiek próbujący życia z wielu stron, w końcu bezdomny. Po kilkunastu latach pracujący w schronisku dla bezdomnych syn ma okazję spotkać się z ojcem.



    Jonathan - Robert De Niro
    - Julianne Moore
    Denise - Olivia Thirlby
    - Paul Dano
    Gabriel - Victor Rasuk
    Joy - Lili Taylor
    Marie - Dale Dickey
    Travis - Billy Wirth







    Video
    ID : 0
    Format : MPEG-4 Visual
    Format profile : Advanced Simple@L4
    Format settings, BVOP : Yes
    Format settings, QPel : No
    Format settings, GMC : No warppoints
    Format settings, Matrix : Default (H.263)
    Codec ID : XVID
    Codec ID/Hint : XviD
    Duration : 1h 41mn
    Bit rate : 1 311 Kbps
    Width : 720 pixels
    Height : 302 pixels
    Display aspect ratio : 2.35:1
    Frame rate : 23.976 fps
    Resolution : 8 bits
    Colorimetry : 4:2:0
    Scan type : Progressive
    Bits/(Pixel*Frame) : 0.251
    Stream size : 954 MiB (74%)
    Writing library : XviD 1.2.1 (UTC 2008-12-04)

    Audio
    ID : 1
    Format : AC-3
    Format/Info : Audio Coding 3
    Codec ID : 2000
    Duration : 1h 41mn
    Bit rate mode : Constant
    Bit rate : 448 Kbps
    Channel(s) : 6 channels
    Channel positions : Front: L C R, Surround: L R, LFE
    Sampling rate : 48.0 KHz
    Stream size : 326 MiB (25%)
    Alignment : Split accross interleaves
    Interleave, duration : 42 ms (1.00 video frame)
    Interleave, preload duration : 500 ms



    Nazwa pliku: Being Flynn 2012 LIMITED BRRip Xvid AC3 TVAL.avi
    Ilość plików na koncie: 184
    Rozmiar segmentu: 7MB
    Wielkość uploadu: 1,26GB
    Ilość mirrorów: 9
    Hasło: www.ufs.pl

    Masz problem z programem MoorHunt? Zajrzyj do działu Poradniki & FAQ tego programu.
    Zalecamy pobieranie za pomocą MailShare







    Przepraszamy, ale nie możesz zobaczyć tego tematu. Musisz sie Zarejestrować
    albo Zalogować

    Upload wykonany w MH 0.6.7.2


    MEMBER > FULL MEMBER > UFS TRIAL > KREATOR > FULL MEMBER > UFS TRIAL > UPLOADER > SUPER UPLOADER > UFS ELITE>MODERATOR>


    +


  2.    Sponsored Links




  3. #2
    Full Member Awatar Novy
     Informacje : 
    Dołączył
    Jun 2010
    Skąd
    Stamtąd
    Posty
    5,919
     Statystyki uploadów : 
    Filmy
    147
    Gry
    143
    Programy
    18
    Seriale
    40
    Muzyka
    18
    Porno
    869
    Inne
    2
    Małe upy
    17
     Łączny upload : 
    P2M UP
    2181.55 GB
     Zapostowane konta : 
    Total CA
    4105
     Podziękowania : 
    Podziękował: 589
    Doceniono: 41,193 razy w 854 postach
    Novy jest nieaktywny

    Domyślnie

    niezatwierdzone
    Ostatnio edytowane przez Novy ; 30-06-2012 o 17:39

Informacje o wątku

Użytkownicy przeglądający ten wątek

Aktualnie 1 użytkownik(ów) przegląda ten wątek. (0 zarejestrowany(ch) oraz 1 gości)

Uprawnienia umieszczania postów

  • Nie możesz zakładać nowych tematów
  • Nie możesz pisać wiadomości
  • Nie możesz dodawać załączników
  • Nie możesz edytować swoich postów
  •