Aktualizacje seriali
 



Ogłoszenia
UFS - dotacje
Dotacje SMS
Jak korzystać z forumowej szukajki



Pokaż wyniki od 1 do 2 z 2

Wątek: Blood Runs Cold [2011][BDRip][ENG]

  1. #1
    Retired Awatar Look
     Informacje : 
    Dołączył
    Jan 2008
    Posty
    4,307
     Statystyki uploadów : 
    Filmy
    595
    Gry
    59
    Programy
    1
    Seriale
    72
    Muzyka
    13
    Porno
    1
    Inne
    4
     Łączny upload : 
    P2M UP
    2456.2 GB
     Zapostowane konta : 
    Total CA
    8670
     Podziękowania : 
    Podziękował: 972
    Doceniono: 20,197 razy w 324 postach
    Look jest nieaktywny

    mh Blood Runs Cold [2011][BDRip][ENG]

    Blood Runs Cold



    Produkcja: Szwecja
    Data Premiery: 2011-10-03 (świat)
    Reżyseria:
    Scenariusz:
    Czas trwania: 80 minut
    Dystrybucja:
    Gatunek: Horror
    Ocena:



    Mająca za sobą przełomowy album, wschodząca artystka Winona, powraca do rodzinnego miasta, by odzyskać inspirację i siły do dalszej pracy. Gdy zamieszkuje w domu, który wynajął jej menadżer, słyszy niepokojące dźwięki dobiegające z pokoju na piętrze. Postanawia więc udać się na drinka do lokalnego pubu. Spotykając dawnego chłopaka i jego przyjaciół, zaprasza ich do siebie. Nie przypuszcza jednak, że coś znajduje się wewnątrz starego domu i tylko czeka na odpowiedni moment, by rozpocząć swoje krwawe żniwa...



    Hanna Oldenburg-Winona
    Andreas Rylander-Carl
    Ralf Beck-Menedżer
    Patrick Saxe-Richard







    Video
    ID : 0
    Format : MPEG-4 Visual
    Format profile : Advanced Simple@L5
    Format settings, BVOP : 2
    Format settings, QPel : No
    Format settings, GMC : No warppoints
    Format settings, Matrix : Default (H.263)
    Muxing mode : Packed bitstream
    Codec ID : XVID
    Codec ID/Hint : XviD
    Duration : 1h 17mn
    Bit rate : 2 089 Kbps
    Width : 720 pixels
    Height : 304 pixels
    Display aspect ratio : 2.35:1
    Frame rate : 24.000 fps
    Color space : YUV
    Chroma subsampling : 4:2:0
    Bit depth : 8 bits
    Scan type : Progressive
    Compression mode : Lossy
    Bits/(Pixel*Frame) : 0.398
    Stream size : 1.12 GiB (84%)
    Writing library : XviD 64

    Audio
    ID : 1
    Format : AC-3
    Format/Info : Audio Coding 3
    Mode extension : CM (complete main)
    Format settings, Endianness : Big
    Codec ID : 2000
    Duration : 1h 17mn
    Bit rate mode : Constant
    Bit rate : 384 Kbps
    Channel(s) : 6 channels
    Channel positions : Front: L C R, Side: L R, LFE
    Sampling rate : 48.0 KHz
    Bit depth : 16 bits
    Compression mode : Lossy
    Stream size : 212 MiB (15%)
    Alignment : Split accross interleaves
    Interleave, duration : 42 ms (1.00 video frame)
    Interleave, preload duration : 500 ms



    Nazwa pliku: Blood.Runs.Cold.2011.BRRip.XViD.DTRG.avi
    Ilość plików na koncie: 196
    Rozmiar segmentu: 7
    Wielkość uploadu: 1,34GB
    Ilość mirrorów: 8
    Hasło: www.ufs.pl

    Masz problem z programem MoorHunt? Zajrzyj do działu Poradniki & FAQ tego programu.
    Zalecamy pobieranie za pomocą MailShare







    Przepraszamy, ale nie możesz zobaczyć tego tematu. Musisz sie Zarejestrować
    albo Zalogować

    Upload wykonany w MH 0.6.7.2


    MEMBER > FULL MEMBER > UFS TRIAL > KREATOR > FULL MEMBER > UFS TRIAL > UPLOADER > SUPER UPLOADER > UFS ELITE>MODERATOR>


    +


  2.    Sponsored Links




  3. #2
    Full Member Awatar Novy
     Informacje : 
    Dołączył
    Jun 2010
    Skąd
    Stamtąd
    Posty
    5,919
     Statystyki uploadów : 
    Filmy
    147
    Gry
    143
    Programy
    18
    Seriale
    40
    Muzyka
    18
    Porno
    869
    Inne
    2
    Małe upy
    17
     Łączny upload : 
    P2M UP
    2181.55 GB
     Zapostowane konta : 
    Total CA
    4105
     Podziękowania : 
    Podziękował: 589
    Doceniono: 41,193 razy w 854 postach
    Novy jest nieaktywny

    Domyślnie

    niezatwierdzone
    Ostatnio edytowane przez Novy ; 12-04-2012 o 14:37

Informacje o wątku

Użytkownicy przeglądający ten wątek

Aktualnie 1 użytkownik(ów) przegląda ten wątek. (0 zarejestrowany(ch) oraz 1 gości)

Podobne wątki

  1. Blood Into Wine [2010][BDRip][ENG]
    Przez Yaro w dziale HQ (High Quality - Wysoka Jakość)
    Odpowiedzi: 1
    Ostatni post / autor: 19-09-2010, 13:14

Uprawnienia umieszczania postów

  • Nie możesz zakładać nowych tematów
  • Nie możesz pisać wiadomości
  • Nie możesz dodawać załączników
  • Nie możesz edytować swoich postów
  •