Aktualizacje seriali
 



Ogłoszenia
UFS - dotacje
Dotacje SMS
Jak korzystać z forumowej szukajki



Pokaż wyniki od 1 do 2 z 2

Wątek: Dragon Eyes [2012][DVDRip][AC3][ENG]

  1. #1
    Retired Awatar Look
     Informacje : 
    Dołączył
    Jan 2008
    Posty
    4,307
     Statystyki uploadów : 
    Filmy
    595
    Gry
    59
    Programy
    1
    Seriale
    72
    Muzyka
    13
    Porno
    1
    Inne
    4
     Łączny upload : 
    P2M UP
    2456.2 GB
     Zapostowane konta : 
    Total CA
    8670
     Podziękowania : 
    Podziękował: 972
    Doceniono: 20,197 razy w 324 postach
    Look jest nieaktywny

    mh Dragon Eyes [2012][DVDRip][AC3][ENG]

    Dragon Eyes



    Produkcja: USA
    Data Premiery: 2012-04-09 (świat)
    Reżyseria: John Hyams
    Scenariusz: Tim Tori
    Czas trwania: 88 minut
    Dystrybucja:
    Gatunek: Akcja | Kryminał | Dramat
    Ocena:



    Mistrz sztuk walki Ryan Hong (Cung Le) przybywa do dzielnicy Nowego Orleanu ogarniętej wojną dwóch gangów. Wykorzystując umiejętności nabyte od swojego mentora Tiano (Jean-Claude Van Damme) stara się skłócić dwóch lokalnych szefów podziemia i zaprowadzić spokój na ulicach. Gdy trafia do aresztu poznaje prawdziwego lokalnego króla przestępczości, Pana V (Peter Weller), skorumpowanego szefa tutejszej policji. Odkrywa, że aby go pokonać, będzie potrzebował pomocy swoich dawnych wrogów.



    Tiano - Jean-Claude Van Damme
    Pan V - Peter Weller
    Pan Hong - Cung Le
    Sierż. Feldman - Kristopher Van Varenberg
    Dash - Luis Da Silva Jr.
    Beach - Eddie Rouse
    Rosanna - Crystal Mantecon
    Antione - Edrick Browne







    Video
    ID : 1
    Format : AVC
    Format/Info : Advanced Video Codec
    Format profile : High@L4.2
    Format settings, CABAC : Yes
    Format settings, ReFrames : 4 frames
    Codec ID : V_MPEG4/ISO/AVC
    Duration : 1h 27mn
    Bit rate : 1 781 Kbps
    Width : 720 pixels
    Height : 304 pixels
    Display aspect ratio : 2.35:1
    Frame rate : 25.000 fps
    Color space : YUV
    Chroma subsampling : 4:2:0
    Bit depth : 8 bits
    Scan type : Progressive
    Bits/(Pixel*Frame) : 0.325
    Stream size : 1.07 GiB (78%)
    Writing library : x264 core 122 r2184 5c85e0a

    Audio
    ID : 2
    Format : AC-3
    Format/Info : Audio Coding 3
    Mode extension : CM (complete main)
    Codec ID : A_AC3
    Duration : 1h 27mn
    Bit rate mode : Constant
    Bit rate : 448 Kbps
    Channel(s) : 6 channels
    Channel positions : Front: L C R, Side: L R, LFE
    Sampling rate : 48.0 KHz
    Bit depth : 16 bits
    Compression mode : Lossy
    Delay relative to video : 6ms
    Stream size : 281 MiB (20%)



    Nazwa pliku: Dragon Eyes 2012 DVDRIP x264 AC3 - HOPE.mkv
    Ilość plików na koncie: 201
    Rozmiar segmentu: 7
    Wielkość uploadu: 1,37GB
    Ilość mirrorów: 9
    Hasło: www.ufs.pl

    Masz problem z programem MoorHunt? Zajrzyj do działu Poradniki & FAQ tego programu.
    Zalecamy pobieranie za pomocą MailShare







    Przepraszamy, ale nie możesz zobaczyć tego tematu. Musisz sie Zarejestrować
    albo Zalogować

    Upload wykonany w MH 0.6.7.2


    MEMBER > FULL MEMBER > UFS TRIAL > KREATOR > FULL MEMBER > UFS TRIAL > UPLOADER > SUPER UPLOADER > UFS ELITE>MODERATOR>


    +


  2.    Sponsored Links




  3. #2
    Full Member Awatar Novy
     Informacje : 
    Dołączył
    Jun 2010
    Skąd
    Stamtąd
    Posty
    5,919
     Statystyki uploadów : 
    Filmy
    147
    Gry
    143
    Programy
    18
    Seriale
    40
    Muzyka
    18
    Porno
    869
    Inne
    2
    Małe upy
    17
     Łączny upload : 
    P2M UP
    2181.55 GB
     Zapostowane konta : 
    Total CA
    4105
     Podziękowania : 
    Podziękował: 589
    Doceniono: 41,193 razy w 854 postach
    Novy jest nieaktywny

    Domyślnie

    niezatwierdzone
    Ostatnio edytowane przez Novy ; 09-04-2012 o 12:55

Informacje o wątku

Użytkownicy przeglądający ten wątek

Aktualnie 1 użytkownik(ów) przegląda ten wątek. (0 zarejestrowany(ch) oraz 1 gości)

Podobne wątki

  1. Dragon Eyes [2012][BRRip][AC3][ENG][Napisy PL]
    Przez Pan Tadeusz w dziale HQ (High Quality - Wysoka Jakość)
    Odpowiedzi: 1
    Ostatni post / autor: 24-12-2012, 12:42
  2. 0.7GB Dragon Eyes [2012][BDRip][ENG]
    Przez Santi w dziale HQ (High Quality - Wysoka Jakość)
    Odpowiedzi: 1
    Ostatni post / autor: 13-04-2012, 14:52

Uprawnienia umieszczania postów

  • Nie możesz zakładać nowych tematów
  • Nie możesz pisać wiadomości
  • Nie możesz dodawać załączników
  • Nie możesz edytować swoich postów
  •