Aktualizacje seriali
 



Ogłoszenia
UFS - dotacje
Dotacje SMS
Jak korzystać z forumowej szukajki



Pokaż wyniki od 1 do 2 z 2

Wątek: Seven Below [2012][BDRip][AC3][ENG]

  1. #1
    Retired Awatar Look
     Informacje : 
    Dołączył
    Jan 2008
    Posty
    4,309
     Statystyki uploadów : 
    Filmy
    595
    Gry
    59
    Programy
    1
    Seriale
    72
    Muzyka
    13
    Porno
    1
    Inne
    4
     Łączny upload : 
    P2M UP
    2456.2 GB
     Zapostowane konta : 
    Total CA
    8670
     Podziękowania : 
    Podziękował: 974
    Doceniono: 20,199 razy w 324 postach
    Look jest nieaktywny

    mh Seven Below [2012][BDRip][AC3][ENG]

    Seven Below



    Produkcja: USA
    Data Premiery:
    Reżyseria: Kevin Carraway
    Scenariusz: Kevin Carraway, Lawrence Sara
    Czas trwania:
    Dystrybucja:
    Gatunek: Thriller
    Ocena:



    Historia grupy nieznajomych, którzy spotykają się podczas potwornej burzy w leśnej chatce. 100 lat temu wydarzyło się tam coś bardzo złego, a teraz historia, za sprawą pętli czasowej, zaczyna się powtarzać.



    McCormick - Val Kilmer
    Jack - Ving Rhames
    Issac - Luke Goss
    Brooklyn - Bonnie Somerville
    Adam - Matt Barr
    Dr Lipski - Christian Baha
    Elizabeth - Brianna Lee Johnson
    Courtney - Rebecca Da Costa







    Video
    ID : 0
    Format : MPEG-4 Visual
    Format profile : Advanced Simple@L5
    Format settings, BVOP : 1
    Format settings, QPel : No
    Format settings, GMC : No warppoints
    Format settings, Matrix : Default (MPEG)
    Muxing mode : Packed bitstream
    Codec ID : XVID
    Codec ID/Hint : XviD
    Duration : 1h 32mn
    Bit rate : 1 920 Kbps
    Width : 720 pixels
    Height : 400 pixels
    Display aspect ratio : 16:9
    Frame rate : 23.976 fps
    Color space : YUV
    Chroma subsampling : 4:2:0
    Bit depth : 8 bits
    Scan type : Progressive
    Compression mode : Lossy
    Bits/(Pixel*Frame) : 0.278
    Stream size : 1.24 GiB (81%)
    Writing library : XviD 58

    Audio
    ID : 1
    Format : AC-3
    Format/Info : Audio Coding 3
    Mode extension : CM (complete main)
    Codec ID : 2000
    Duration : 1h 32mn
    Bit rate mode : Constant
    Bit rate : 448 Kbps
    Channel(s) : 6 channels
    Channel positions : Front: L C R, Side: L R, LFE
    Sampling rate : 48.0 KHz
    Bit depth : 16 bits
    Compression mode : Lossy
    Stream size : 296 MiB (19%)
    Alignment : Split accross interleaves
    Interleave, duration : 42 ms (1.00 video frame)
    Interleave, preload duration : 500 ms



    Nazwa pliku: S.B.2012.BDR.ANALOG.avi
    Ilość plików na koncie: 225
    Rozmiar segmentu: 7
    Wielkość uploadu: 1,53GB
    Ilość mirrorów: 9
    Hasło: www.ufs.pl

    Masz problem z programem MoorHunt? Zajrzyj do działu Poradniki & FAQ tego programu.
    Zalecamy pobieranie za pomocą MailShare







    Przepraszamy, ale nie możesz zobaczyć tego tematu. Musisz sie Zarejestrować
    albo Zalogować

    Upload wykonany w MH 0.6.7.2


    MEMBER > FULL MEMBER > UFS TRIAL > KREATOR > FULL MEMBER > UFS TRIAL > UPLOADER > SUPER UPLOADER > UFS ELITE>MODERATOR>


    +


  2.    Sponsored Links




  3. #2
    Masterix Awatar Santi
     Informacje : 
    Dołączył
    Oct 2008
    Posty
    4,185
     Statystyki uploadów : 
    Filmy
    646
    Gry
    46
    Programy
    1
    Seriale
    40
    Muzyka
    3
    Inne
    3
     Łączny upload : 
    P2M UP
    1136.7 GB
     Zapostowane konta : 
    Total CA
    1980
     Podziękowania : 
    Podziękował: 619
    Doceniono: 25,434 razy w 335 postach
    Santi jest nieaktywny

    Domyślnie




    !! Wzajemny Szacunek podstawą sprawnego działania Forum !!

Informacje o wątku

Użytkownicy przeglądający ten wątek

Aktualnie 1 użytkownik(ów) przegląda ten wątek. (0 zarejestrowany(ch) oraz 1 gości)

Podobne wątki

  1. The Vow [2012][BDRip][AC3][ENG]
    Przez eMPeK w dziale HQ (High Quality - Wysoka Jakość)
    Odpowiedzi: 1
    Ostatni post / autor: 07-06-2012, 23:02

Uprawnienia umieszczania postów

  • Nie możesz zakładać nowych tematów
  • Nie możesz pisać wiadomości
  • Nie możesz dodawać załączników
  • Nie możesz edytować swoich postów
  •