Aktualizacje seriali
 



Ogłoszenia
UFS - dotacje
Dotacje SMS
Jak korzystać z forumowej szukajki



Pokaż wyniki od 1 do 3 z 3

Wątek: Jak upolować faceta [2012][DVDRip][ENG][Napisy PL]

  1. #1
    Full Member
     Informacje : 
    Dołączył
    Mar 2012
    Posty
    351
     Statystyki uploadów : 
    Filmy
    54
     Łączny upload : 
    P2M UP
    54.5 GB
     Podziękowania : 
    Podziękował: 164
    Doceniono: 495 razy w 53 postach
    holigans12 jest nieaktywny

    mh One for the Money [2012][BDRip][ENG][Napisy PL]

    Jak upolować faceta
    One for the Money




    Produkcja: USA
    Data Premiery: 2012-03-09 (kino), 2012-01-26 (świat)
    Reżyseria: Julie Anne Robinson
    Scenariusz: Liz Brixius, Karen McCullah Lutz
    Czas trwania: 106 minut
    Dystrybucja: Monolith Films
    Gatunek: Komedia | Kryminał | Thriller | Akcja
    Ocena: 6.3



    Życie Stephanie Plum (Katherine Heigl) nie układa się najlepiej. Nie ma faceta, ani pracy, jej konto świeci pustkami a spod domu właśnie odholowali jej samochód. Całkowicie spłukana i zdesperowana próbuje znaleźć zajęcie, dzięki któremu zdobędzie szybką gotówkę. Prosi o pomoc swojego kuzyna Vinniego (Patrick Fischler), którego firma zajmuje się ściąganiem długów i wyłapywaniem unikających prawa cwaniaków. Pierwszym zleceniem Stephenie jest Joe Morelli – były gliniarz i główny podejrzany w sprawie o morderstwo, który – tak się właśnie składa – skradł jej serce w czasach licealnych. Zemsta musi być słodka, ale w trakcie śledztwa Stephanie odkrywa, że upolowanie faceta to nie taka prosta sprawa jak jej się wydawało! (opis dystrybutora)



    Stephanie Plum - Katherine Heigl
    Jimmy Alpha - John Leguizamo
    Ranger - Daniel Sunjata
    Babcia Mazur - Debbie Reynolds
    Joe Morelli - Jason O'Mara
    Lula - Sherri Shepherd
    Vinnie Plum - Patrick Fischler
    Eddie Gazarra - Nate Mooney









    General
    Complete name : E:\filmy\www.ufs.pl Jak upolować faceta One for the Money (2012)\www.ufs.pl One.For.The.Money.2012.BDRip.XviD-BiDA napisy pl.avi
    Format : AVI
    Format/Info : Audio Video Interleave
    File size : 700 MiB
    Duration : 1h 27mn
    Overall bit rate : 1 118 Kbps

    Video
    ID : 0
    Format : MPEG-4 Visual
    Format profile : Advanced Simple@L5
    Format settings, BVOP : 2
    Format settings, QPel : No
    Format settings, GMC : No warppoints
    Format settings, Matrix : Default (H.263)
    Codec ID : XVID
    Codec ID/Hint : XviD
    Duration : 1h 27mn
    Bit rate : 993 Kbps
    Width : 640 pixels
    Height : 272 pixels
    Display aspect ratio : 2.35:1
    Frame rate : 25.000 fps
    Original frame rate : 23.976 fps
    Color space : YUV
    Chroma subsampling : 4:2:0
    Bit depth : 8 bits
    Scan type : Progressive
    Compression mode : Lossy
    Bits/(Pixel*Frame) : 0.228
    Stream size : 622 MiB (89%)
    Writing library : XviD 64

    Audio
    ID : 1
    Format : MPEG Audio
    Format version : Version 1
    Format profile : Layer 3
    Codec ID : 55
    Codec ID/Hint : MP3
    Duration : 1h 27mn
    Bit rate mode : Constant
    Bit rate : 112 Kbps
    Channel(s) : 2 channels
    Sampling rate : 48.0 KHz
    Compression mode : Lossy
    Stream size : 70.1 MiB (10%)
    Alignment : Split accross interleaves
    Interleave, duration : 24 ms (0.60 video frame)






    Nazwa pliku:www.ufs.pl One.For.The.Money.2012.BDRip.XviD-BiDA napisy pl
    Ilość plików na koncie: 1
    Rozmiar segmentu: 8
    Wielkość uploadu:735,35 MB
    Ilość mirrorów: 8
    od autora : paczce są napisy pl
    Hasło: www.ufs.pl

    Masz problem z programem MoorHunt? Zajrzyj do działu Poradniki & FAQ tego programu.
    Zalecamy pobieranie za pomocą MailShare







    Przepraszamy, ale nie możesz zobaczyć tego tematu. Musisz sie Zarejestrować
    albo Zalogować

    Upload zawiera 5% danych naprawczych!
    Jak korzystać z danych naprawczych? Tutaj znajdziesz poradnik!
    Upload wykonany w MH 0.6.7.2
    Ostatnio edytowane przez holigans12 ; 19-03-2012 o 14:23 Powód: poprawa

  2. Liczba osób które doceniły autora: 1


  3.    Sponsored Links




  4. #2
    Full Member Awatar Novy
     Informacje : 
    Dołączył
    Jun 2010
    Skąd
    Stamtąd
    Posty
    5,919
     Statystyki uploadów : 
    Filmy
    147
    Gry
    143
    Programy
    18
    Seriale
    40
    Muzyka
    18
    Porno
    869
    Inne
    2
    Małe upy
    17
     Łączny upload : 
    P2M UP
    2181.55 GB
     Zapostowane konta : 
    Total CA
    4105
     Podziękowania : 
    Podziękował: 589
    Doceniono: 41,193 razy w 854 postach
    Novy jest nieaktywny

    Domyślnie

    niezatwierdzone
    Ostatnio edytowane przez Novy ; 19-03-2012 o 17:06

  5. #3
    Full Member
     Informacje : 
    Dołączył
    Mar 2008
    Posty
    380
     Podziękowania : 
    Podziękował: 373
    Doceniono: 0 razy w 0 postach
    gobo74 jest nieaktywny

    Domyślnie

    Niestety u mnie np napisy były strasznie żle dopasowane. Ściągnąłem inne ale też był brak synchronizacji. Zrobiłem tyle co sam potrafię a oto efekt. Może ktoś skorzysta.
    POZDRAWIAM
    NIestety nie wiem jak dodać napisy do forum więc wysłałem przerobione do napiproject.
    Ostatnio edytowane przez gobo74 ; 24-03-2012 o 22:40

Informacje o wątku

Użytkownicy przeglądający ten wątek

Aktualnie 1 użytkownik(ów) przegląda ten wątek. (0 zarejestrowany(ch) oraz 1 gości)

Uprawnienia umieszczania postów

  • Nie możesz zakładać nowych tematów
  • Nie możesz pisać wiadomości
  • Nie możesz dodawać załączników
  • Nie możesz edytować swoich postów
  •