Aktualizacje seriali
 



Ogłoszenia
UFS - dotacje
Dotacje SMS
Jak korzystać z forumowej szukajki



Pokaż wyniki od 1 do 2 z 2

Wątek: Super Mario Bros [1993][DVDRip][AC3][ENG]

  1. #1
    Retired Awatar Look
     Informacje : 
    Dołączył
    Jan 2008
    Posty
    4,310
     Statystyki uploadów : 
    Filmy
    595
    Gry
    59
    Programy
    1
    Seriale
    72
    Muzyka
    13
    Porno
    1
    Inne
    4
     Łączny upload : 
    P2M UP
    2456.2 GB
     Zapostowane konta : 
    Total CA
    8670
     Podziękowania : 
    Podziękował: 975
    Doceniono: 20,200 razy w 324 postach
    Look jest nieaktywny

    mh Super Mario Bros [1993][DVDRip][AC3][ENG]

    Super Mario Bros



    Produkcja: USA | Wielka Brytania
    Gatunek: Komedia | Przygodowy | Fantasy
    Data premiery: 1993-05-28 (świat), 2008-06-19 (dvd)
    Reżyseria: Annabel Jankel, Rocky Morton
    Scenariusz: Parker Bennett, Terry Runte
    Czas trwania: 104 minut
    Ocena: 6.0




    Przez miliony lat dinozaury żyły sobie spokojnie na Ziemi, aż do swojego tajemniczego wyginięcia. Teraz zły tyran zwany Koopa, chcąc zawładnąć światem, desperacko próbuje zdobyć magiczny wisiorek córki króla by wskrzesić te prastare gady. Jego niecne plany mogą się zakończyć upadkiem cywilizacji. Na szczęście księżniczka Daisy ma dwóch wiernych, odważnych i sprytnych przyjaciół - braci Mario. Teraz od nich zależą losy świata. (opis dystrybutora)


    Bob Hoskins - Mario Mario
    John Leguizamo - Luigi Mario
    Dennis Hopper - Król Koopa
    Samantha Mathis - Księżniczka Daisy
    Fisher Stevens - Iggy
    Richard Edson - Spike
    Fiona Shaw - Lena
    Gianni Russo - Scapelli






    Video
    ID : 0
    Format : MPEG-4 Visual
    Format profile : Advanced Simple@L5
    Format settings, BVOP : 2
    Format settings, QPel : No
    Format settings, GMC : No warppoints
    Format settings, Matrix : Default (H.263)
    Codec ID : XVID
    Codec ID/Hint : XviD
    Duration : 1h 40mn
    Bit rate : 837 Kbps
    Width : 720 pixels
    Height : 384 pixels
    Display aspect ratio : 1.875
    Frame rate : 25.000 fps
    Color space : YUV
    Chroma subsampling : 4:2:0
    Bit depth : 8 bits
    Scan type : Progressive
    Compression mode : Lossy
    Bits/(Pixel*Frame) : 0.121
    Stream size : 599 MiB (86%)
    Writing library : XviD 1.2.1 (UTC 2008-12-04)


    Audio
    ID : 1
    Format : AC-3
    Format/Info : Audio Coding 3
    Mode extension : CM (complete main)
    Codec ID : 2000
    Duration : 1h 40mn
    Bit rate mode : Constant
    Bit rate : 128 Kbps
    Channel(s) : 2 channels
    Channel positions : Front: L R
    Sampling rate : 48.0 KHz
    Bit depth : 16 bits
    Compression mode : Lossy
    Stream size : 91.6 MiB (13%)
    Alignment : Aligned on interleaves
    Interleave, duration : 64 ms (1.60 video frames)
    Interleave, preload duration : 192 ms



    Nazwa pliku:Super.Mario.Bros.1993.DVDRip.XviD.AC3.CrEwSa De.avi
    Ilość plików na koncie: 100
    Rozmiar segmentu: 7
    Wielkość uploadu: 700
    Ilość mirrorów: 9
    Hasło: www.ufs.pl






    Przepraszamy, ale nie możesz zobaczyć tego tematu. Musisz sie Zarejestrować
    albo Zalogować




    Created by URG2 Beta 1.1.2 by PoziomeQ
    Ostatnio edytowane przez Silka ; 07-03-2012 o 19:42


    MEMBER > FULL MEMBER > UFS TRIAL > KREATOR > FULL MEMBER > UFS TRIAL > UPLOADER > SUPER UPLOADER > UFS ELITE>MODERATOR>


    +


  2.    Sponsored Links




  3. #2
    Uwaga k0 bieta Awatar Silka
     Informacje : 
    Dołączył
    Mar 2008
    Skąd
    śląsk
    Posty
    2,253
     Statystyki uploadów : 
    Filmy
    51
    Gry
    9
    Programy
    7
    Seriale
    156
    Muzyka
    139
    Inne
    1
    Małe upy
    8
     Łączny upload : 
    P2M UP
    271.3 GB
     Zapostowane konta : 
    Total CA
    495
     Podziękowania : 
    Podziękował: 14
    Doceniono: 184 razy w 68 postach
    Silka jest nieaktywny

    Domyślnie

    niezatwierdzone
    Ostatnio edytowane przez Silka ; 07-03-2012 o 19:42




    "...Jeśli któregoś dnia, ktoś zarzuci Ci, że Twoja praca nie jest profesjonalna, powiedz sobie, że Arkę Noego zbudowali amatorzy a Titanic'a profesjonaliści..."



    Trial -> 31.01.10 Uploader -> 14.09.10 Elita -> 6.11.10 Moderator -> 11.06.12 Retired -> 11.11.12 Elita ->21.04.2013 Retired

    Mail Resender



Informacje o wątku

Użytkownicy przeglądający ten wątek

Aktualnie 1 użytkownik(ów) przegląda ten wątek. (0 zarejestrowany(ch) oraz 1 gości)

Uprawnienia umieszczania postów

  • Nie możesz zakładać nowych tematów
  • Nie możesz pisać wiadomości
  • Nie możesz dodawać załączników
  • Nie możesz edytować swoich postów
  •