Aktualizacje seriali
 



Ogłoszenia
UFS - dotacje
Dotacje SMS
Jak korzystać z forumowej szukajki



Pokaż wyniki od 1 do 2 z 2

Wątek: Carnage [2011][BRRip][AC3][ENG]

  1. #1
    Retired Awatar Look
     Informacje : 
    Dołączył
    Jan 2008
    Posty
    4,307
     Statystyki uploadów : 
    Filmy
    595
    Gry
    59
    Programy
    1
    Seriale
    72
    Muzyka
    13
    Porno
    1
    Inne
    4
     Łączny upload : 
    P2M UP
    2456.2 GB
     Zapostowane konta : 
    Total CA
    8670
     Podziękowania : 
    Podziękował: 972
    Doceniono: 20,197 razy w 324 postach
    Look jest teraz aktywny

    mh Carnage [2011][BRRip][AC3][ENG]

    Carnage



    Produkcja: Francja | Niemcy | Polska | Hiszpania
    Gatunek: Komedia | Dramat
    Data premiery: 2012-01-20 (kino), 2011-09-01 (świat)
    Reżyseria: Roman Polański
    Scenariusz: Yasmina Reza (również) (sztuka "Le Dieu du carnage"), Roman Polański
    Czas trwania: 79 minut
    Ocena: 7.4




    Dwie nowojorskie pary: Alan (Christoph Waltz nagrodzony Oscarem za kreację w Bękartach wojny Quentina Tarantino) i Nancy (Kate Winslet, laureatka Oscara za rolę w Lektorze) oraz Michael (nominowany do Oscara za musical Chicago John C. Reilly) i Penelope (Jodie Foster, zdobywczyni Oscarów za wirtuozerskie kreacje w Oskarżonych i Milczeniu owiec). Zdawałoby się, że wszystko je łączy. Nienaganne maniery, wysoki standard życia i satysfakcja z uczących się w najlepszych szkołach dzieci. Wszyscy czworo mogą uważać się za elitę amerykańskiej socjety. Kiedy ich dzieci wszczynają bójkę, na pozór niewinne spotkanie rodziców, zorganizowane celem wyjaśnienia sprawy, przerodzi się w lawinę potyczek i wzajemnych złośliwości. W tym piekielnie zabawnym pojedynku stawką będzie dobre imię i status każdego z uczestników. Nic zatem dziwnego, że wytrawni przeciwnicy dopuszczą się ciosów poniżej pasa. Wkrótce wyjdą na jaw głęboko skrywane tajemnice, a gdy więzy małżeńskie ulegną zaskakującemu rozluźnieniu, okaże się, że w nowoczesnym związku wszystkie chwyty są dozwolone... (opis dystrybutora)


    Jodie Foster - Penelope Longstreet
    Kate Winslet - Nancy Cowan
    Christoph Waltz - Alan Cowan
    John C. Reilly - Michael Longstreet
    Elvis Polański - Zachary Cowan
    Eliot Berger - Ethan Longstreet
    Joseph Rezwin - Walter (głos)
    Nathan Rippy - Dennis (głos)






    Video
    ID : 0
    Format : MPEG-4 Visual
    Format profile : Advanced Simple@L5
    Format settings, BVOP : 1
    Format settings, QPel : No
    Format settings, GMC : No warppoints
    Format settings, Matrix : Default (H.263)
    Muxing mode : Packed bitstream
    Codec ID : XVID
    Codec ID/Hint : XviD
    Duration : 1h 19mn
    Bit rate : 2 105 Kbps
    Width : 720 pixels
    Height : 304 pixels
    Display aspect ratio : 2.35:1
    Frame rate : 23.976 fps
    Color space : YUV
    Chroma subsampling : 4:2:0
    Bit depth : 8 bits
    Scan type : Progressive
    Compression mode : Lossy
    Bits/(Pixel*Frame) : 0.401
    Stream size : 1.17 GiB (82%)
    Writing library : XviD 64

    Audio
    ID : 1
    Format : AC-3
    Format/Info : Audio Coding 3
    Mode extension : CM (complete main)
    Codec ID : 2000
    Duration : 1h 19mn
    Bit rate mode : Constant
    Bit rate : 448 Kbps
    Channel(s) : 5 channels
    Channel positions : Front: L C R, Side: L R
    Sampling rate : 48.0 KHz
    Bit depth : 16 bits
    Compression mode : Lossy
    Stream size : 255 MiB (17%)
    Alignment : Aligned on interleaves
    Interleave, duration : 42 ms (1.00 video frame)
    Interleave, preload duration : 512 ms
    Language : English
    Sample : Yes



    Nazwa pliku: C.2011.BDR.ANALOG.avi
    Ilość plików na koncie: 209
    Rozmiar segmentu: 7
    Wielkość uploadu: 1,43GB
    Ilość mirrorów: 9
    Hasło: www.ufs.pl






    Przepraszamy, ale nie możesz zobaczyć tego tematu. Musisz sie Zarejestrować
    albo Zalogować




    Created by URG2 Beta 1.1.2 by PoziomeQ
    Ostatnio edytowane przez Silka ; 07-03-2012 o 19:35


    MEMBER > FULL MEMBER > UFS TRIAL > KREATOR > FULL MEMBER > UFS TRIAL > UPLOADER > SUPER UPLOADER > UFS ELITE>MODERATOR>


    +


  2. Liczba osób które doceniły autora: 1


  3.    Sponsored Links




  4. #2
    Uwaga k0 bieta Awatar Silka
     Informacje : 
    Dołączył
    Mar 2008
    Skąd
    śląsk
    Posty
    2,253
     Statystyki uploadów : 
    Filmy
    51
    Gry
    9
    Programy
    7
    Seriale
    156
    Muzyka
    139
    Inne
    1
    Małe upy
    8
     Łączny upload : 
    P2M UP
    271.3 GB
     Zapostowane konta : 
    Total CA
    495
     Podziękowania : 
    Podziękował: 14
    Doceniono: 184 razy w 68 postach
    Silka jest nieaktywny

    Domyślnie

    niezatwierdzone
    Ostatnio edytowane przez Silka ; 07-03-2012 o 19:35




    "...Jeśli któregoś dnia, ktoś zarzuci Ci, że Twoja praca nie jest profesjonalna, powiedz sobie, że Arkę Noego zbudowali amatorzy a Titanic'a profesjonaliści..."



    Trial -> 31.01.10 Uploader -> 14.09.10 Elita -> 6.11.10 Moderator -> 11.06.12 Retired -> 11.11.12 Elita ->21.04.2013 Retired

    Mail Resender



Informacje o wątku

Użytkownicy przeglądający ten wątek

Aktualnie 1 użytkownik(ów) przegląda ten wątek. (0 zarejestrowany(ch) oraz 1 gości)

Podobne wątki

  1. 0.7GB Carnage [2011][BRRip][ENG][Napisy PL]
    Przez akira5 w dziale HQ (High Quality - Wysoka Jakość)
    Odpowiedzi: 1
    Ostatni post / autor: 08-03-2012, 03:17

Uprawnienia umieszczania postów

  • Nie możesz zakładać nowych tematów
  • Nie możesz pisać wiadomości
  • Nie możesz dodawać załączników
  • Nie możesz edytować swoich postów
  •