Aktualizacje seriali
 



Ogłoszenia
UFS - dotacje
Dotacje SMS
Jak korzystać z forumowej szukajki



Pokaż wyniki od 1 do 2 z 2

Wątek: The Story of Lover's Rock [2012][DVDRip][ENG]

  1. #1
    Retired Awatar Look
     Informacje : 
    Dołączył
    Jan 2008
    Posty
    4,309
     Statystyki uploadów : 
    Filmy
    595
    Gry
    59
    Programy
    1
    Seriale
    72
    Muzyka
    13
    Porno
    1
    Inne
    4
     Łączny upload : 
    P2M UP
    2456.2 GB
     Zapostowane konta : 
    Total CA
    8670
     Podziękowania : 
    Podziękował: 974
    Doceniono: 20,199 razy w 324 postach
    Look jest teraz aktywny

    mh The Story of Lover's Rock [2012][DVDRip][ENG]

    The Story of Lover's Rock



    Produkcja: Wielka Brytania
    Gatunek: Dokumentalny
    Data premiery: 2012
    Reżyseria: Menelik Shabazz
    Scenariusz: Menelik Shabazz
    Czas trwania: 98
    Ocena:




    The Story of Lover’s Rock" to dokument fabularny, który opowiada o gatunku lovers rock, narodzonego w Wielkiej Brytanii w latach 70. Gatunek ten powstał niejako w opozycji do głównego nurtu reggae, przesyconego ideami rastafari i polityką. Utwory z gatunku lovers rock mają wolniejsze, często balladowe tempo. (dubmusic.pl)


    Dennis Bovell,
    Paulette Harris-German,
    Janet Kay,
    Angie Le Mar






    Format: AVI
    Format/Info: Audio Video Interleave
    File size: 700 MiB
    Duration: 1h 38mn
    Overall bit rate mode: Variable
    Overall bit rate: 996 Kbps
    Writing application: VirtualDubMod 1.5.10.2 (build 2540/release)
    Writing library: VirtualDubMod build 2540/release

    Video
    ID: 0
    Format: MPEG-4 Visual
    Format profile: Advanced Simple@L5
    Format settings, BVOP: 2
    Format settings, QPel: No
    Format settings, GMC: No warppoints
    Format settings, Matrix: Default (H.263)
    Codec ID: XVID
    Codec ID/Hint: XviD
    Duration: 1h 38mn
    Bit rate: 846 Kbps
    Width: 560 pixels
    Height: 304 pixels
    Display aspect ratio: 16:9
    Frame rate: 25.000 fps
    Color space: YUV
    Chroma subsampling: 4:2:0
    Bit depth: 8 bits
    Scan type: Progressive
    Compression mode: Lossy
    Bits/(Pixel*Frame): 0.199
    Stream size: 595 MiB (85%)
    Writing library: XviD 61

    Audio
    ID: 1
    Format: MPEG Audio
    Format version: Version 1
    Format profile: Layer 3
    Mode: Joint stereo
    Mode extension: MS Stereo
    Codec ID: 55
    Codec ID/Hint: MP3
    Duration: 1h 38mn
    Bit rate mode: Variable
    Bit rate: 136 Kbps
    Nominal bit rate: 128 Kbps
    Channel(s): 2 channels
    Sampling rate: 48.0 KHz
    Compression mode: Lossy
    Stream size: 95.9 MiB (14%)
    Alignment: Aligned on interleaves
    Interleave, duration: 24 ms (0.60 video frame)
    Interleave, preload duration: 135 ms
    Writing library: LAME3.90
    Encoding settings: -m j -V 4 -q 2 -lowpass 17.6 --abr 128



    Nazwa pliku:loversrock.avi
    Ilość plików na koncie: 100
    Rozmiar segmentu: 7
    Wielkość uploadu: 700
    Ilość mirrorów: 9
    Hasło: www.ufs.pl






    Przepraszamy, ale nie możesz zobaczyć tego tematu. Musisz sie Zarejestrować
    albo Zalogować




    Created by URG2 Beta 1.1.2 by PoziomeQ
    Ostatnio edytowane przez Look ; 01-03-2012 o 12:48


    MEMBER > FULL MEMBER > UFS TRIAL > KREATOR > FULL MEMBER > UFS TRIAL > UPLOADER > SUPER UPLOADER > UFS ELITE>MODERATOR>


    +


  2.    Sponsored Links




  3. #2
    Full Member Awatar Novy
     Informacje : 
    Dołączył
    Jun 2010
    Skąd
    Stamtąd
    Posty
    5,919
     Statystyki uploadów : 
    Filmy
    147
    Gry
    143
    Programy
    18
    Seriale
    40
    Muzyka
    18
    Porno
    869
    Inne
    2
    Małe upy
    17
     Łączny upload : 
    P2M UP
    2181.55 GB
     Zapostowane konta : 
    Total CA
    4105
     Podziękowania : 
    Podziękował: 589
    Doceniono: 41,193 razy w 854 postach
    Novy jest nieaktywny

    Domyślnie

    niezatwierdzone

    Ostatnio edytowane przez Novy ; 01-03-2012 o 12:51

Informacje o wątku

Użytkownicy przeglądający ten wątek

Aktualnie 1 użytkownik(ów) przegląda ten wątek. (0 zarejestrowany(ch) oraz 1 gości)

Podobne wątki

  1. 0.7GB Hate Story [2012][DVDRip][ENG][Napisy PL]
    Przez Pan Tadeusz w dziale HQ (High Quality - Wysoka Jakość)
    Odpowiedzi: 1
    Ostatni post / autor: 11-08-2012, 20:04

Uprawnienia umieszczania postów

  • Nie możesz zakładać nowych tematów
  • Nie możesz pisać wiadomości
  • Nie możesz dodawać załączników
  • Nie możesz edytować swoich postów
  •