Aktualizacje seriali
 



Ogłoszenia
UFS - dotacje
Dotacje SMS
Jak korzystać z forumowej szukajki



Pokaż wyniki od 1 do 2 z 2

Wątek: Deviation [2012][DVDRip][ENG]

  1. #1
    Ja Tu Robię Tylko Konta Awatar RoberciQ
     Informacje : 
    Dołączył
    Sep 2008
    Skąd
    City of Westminster
    Posty
    1,377
     Statystyki uploadów : 
    Filmy
    305
    Gry
    5
    Programy
    1
    Seriale
    20
    Muzyka
    4
     Łączny upload : 
    P2M UP
    605.25 GB
     Zapostowane konta : 
    Total CA
    45190
     Podziękowania : 
    Podziękował: 411
    Doceniono: 227 razy w 106 postach
    RoberciQ jest nieaktywny

    mh Deviation [2012][DVDRip][ENG]

    Deviation



    Tytuł: Deviation
    Produkcja: Wielka Brytania
    Gatunek: Thriller
    Czas trwania: 90 min.
    Premiera: 27.02.2012 - DVD
    Reżyseria: J.K. Amalou
    Scenariusz: J.K. Amalou



    Frankie jest obłąkanym mordercą, który właśnie uciekł ze szpitala psychiatrycznego. W trakcie swojej ucieczki bierze zakładniczkę, która ma mu pomóc w przekroczeniu granicy.



    Danny Dyer
    Anna Walton
    James Doherty
    David Fynn







    Format : AVI
    Format/Info : Audio Video Interleave
    File size : 701 MiB
    Duration : 1h 26mn
    Overall bit rate : 1 139 Kbps

    Video
    ID : 0
    Format : MPEG-4 Visual
    Format profile : Advanced Simple@L5
    Format settings, BVOP : 2
    Format settings, QPel : No
    Format settings, GMC : No warppoints
    Format settings, Matrix : Default (H.263)
    Muxing mode : Packed bitstream
    Codec ID : XVID
    Codec ID/Hint : XviD
    Duration : 1h 26mn
    Bit rate : 1 005 Kbps
    Width : 640 pixels
    Height : 272 pixels
    Display aspect ratio : 2.35:1
    Frame rate : 25.000 fps
    Color space : YUV
    Chroma subsampling : 4:2:0
    Bit depth : 8 bits
    Scan type : Progressive
    Compression mode : Lossy
    Bits/(Pixel*Frame) : 0.231
    Stream size : 619 MiB (88%)
    Writing library : XviD 62

    Audio
    ID : 1
    Format : MPEG Audio
    Format version : Version 1
    Format profile : Layer 3
    Mode : Joint stereo
    Mode extension : MS Stereo
    Codec ID : 55
    Codec ID/Hint : MP3
    Duration : 1h 26mn
    Bit rate mode : Constant
    Bit rate : 128 Kbps
    Channel(s) : 2 channels
    Sampling rate : 48.0 KHz
    Compression mode : Lossy
    Stream size : 78.8 MiB (11%)



    Nazwa pliku: Deviation [2012][DVDRip][ENG].avi
    Rozmiar Pliku: 701,29 MB
    Rozmiar segmentu: 7,00 MB
    Liczba segmentów: 101
    Liczba mirrorów:8
    Hasło: www.ufs.pl

    Masz problem z programem MoorHunt? Zajrzyj do działu Poradniki & FAQ tego programu.
    Zalecamy pobieranie za pomocą MailShare







    Przepraszamy, ale nie możesz zobaczyć tego tematu. Musisz sie Zarejestrować
    albo Zalogować

    Upload wykonany w MH 0.6.7.2



  2.    Sponsored Links




  3. #2
    Full Member Awatar Novy
     Informacje : 
    Dołączył
    Jun 2010
    Skąd
    Stamtąd
    Posty
    5,919
     Statystyki uploadów : 
    Filmy
    147
    Gry
    143
    Programy
    18
    Seriale
    40
    Muzyka
    18
    Porno
    869
    Inne
    2
    Małe upy
    17
     Łączny upload : 
    P2M UP
    2181.55 GB
     Zapostowane konta : 
    Total CA
    4105
     Podziękowania : 
    Podziękował: 589
    Doceniono: 41,193 razy w 854 postach
    Novy jest nieaktywny

    Domyślnie

    niezatwierdzone

Informacje o wątku

Użytkownicy przeglądający ten wątek

Aktualnie 1 użytkownik(ów) przegląda ten wątek. (0 zarejestrowany(ch) oraz 1 gości)

Uprawnienia umieszczania postów

  • Nie możesz zakładać nowych tematów
  • Nie możesz pisać wiadomości
  • Nie możesz dodawać załączników
  • Nie możesz edytować swoich postów
  •