Aktualizacje seriali
 



Ogłoszenia
UFS - dotacje
Dotacje SMS
Jak korzystać z forumowej szukajki



Pokaż wyniki od 1 do 5 z 5

Wątek: Woman in black [2012][DVDScr][ENG]

  1. #1
    Retired Awatar Look
     Informacje : 
    Dołączył
    Jan 2008
    Posty
    4,309
     Statystyki uploadów : 
    Filmy
    595
    Gry
    59
    Programy
    1
    Seriale
    72
    Muzyka
    13
    Porno
    1
    Inne
    4
     Łączny upload : 
    P2M UP
    2456.2 GB
     Zapostowane konta : 
    Total CA
    8670
     Podziękowania : 
    Podziękował: 974
    Doceniono: 20,197 razy w 324 postach
    Look jest teraz aktywny

    mh Woman in black [2012][DVDScr][ENG]

    Woman in black



    Produkcja: Kanada | Szwecja | Wielka Brytania
    Gatunek: Dramat | Horror
    Data premiery: 2012-03-02 (kino), 2012-02-03 (świat)
    Reżyseria: James Watkins
    Scenariusz: Jane Goldman
    Czas trwania: 95 minut
    Ocena:




    Młody prawnik Arthur Kipps (Daniel Radcliffe) jest zmuszony udać się do odległej wioski w celu uporządkowania dokumentów niedawno zmarłego klienta. Arthur pracuje sam w odizolowanym domu zmarłego, odkrywa przerażające tajemnice, a jego niepokój rośnie gdy zaczyna widywać ubraną na czarno tajemniczą kobietę. Mieszkańcy wioski nie chcą mu nic powiedzieć, więc Kipps zmuszony jest do samodzielnego odkrycia tożsamości kobiety. Prawnik toczy walkę z czasem, gdy odkrywa jakie są prawdziwe intencje kobiety. (ferhin2)


    Daniel Radcliffe - Arthur Kipps
    Ciarán Hinds - Pan Daily
    Janet McTeer - Żona pana Daily
    Mary Stockley - Pani Fisher
    Lucy May Barker - Niania
    Sidney Johnston - Nicholas Daily
    Alisa Khazanova - Alice Drablow
    Shaun Dooley - Wędkarz







    Video
    ID : 0
    Format : MPEG-4 Visual
    Format profile : Advanced Simple@L5
    Format settings, BVOP : 2
    Format settings, QPel : No
    Format settings, GMC : No warppoints
    Format settings, Matrix : Default (H.263)
    Codec ID : XVID
    Codec ID/Hint : XviD
    Duration : 1h 28mn
    Bit rate : 1 491 Kbps
    Width : 720 pixels
    Height : 320 pixels
    Display aspect ratio : 2.25:1
    Frame rate : 25.000 fps
    Color space : YUV
    Chroma subsampling : 4:2:0
    Bit depth : 8 bits
    Scan type : Progressive
    Compression mode : Lossy
    Bits/(Pixel*Frame) : 0.259
    Stream size : 942 MiB (91%)
    Writing library : XviD 64

    Audio
    ID : 1
    Format : AC-3
    Format/Info : Audio Coding 3
    Mode extension : CM (complete main)
    Codec ID : 2000
    Duration : 1h 28mn
    Source duration : 1h 28mn
    Bit rate mode : Constant
    Bit rate : 128 Kbps
    Channel(s) : 2 channels
    Channel positions : Front: L R
    Sampling rate : 48.0 KHz
    Bit depth : 16 bits
    Compression mode : Lossy
    Stream size : 80.8 MiB (8%)
    Alignment : Aligned on interleaves
    Interleave, duration : 32 ms (0.80 video frame)




    Nazwa pliku:THE WOMAN IN BLACK 2012 SCR READNFO XViD AC3-26K.avi
    Ilość plików na koncie: 149
    Rozmiar segmentu: 7
    Wielkość uploadu: 1,01GB
    Ilość mirrorów: 9
    Hasło: www.ufs.pl






    Przepraszamy, ale nie możesz zobaczyć tego tematu. Musisz sie Zarejestrować
    albo Zalogować




    Created by URG2 Beta 1.1.2 by PoziomeQ


    MEMBER > FULL MEMBER > UFS TRIAL > KREATOR > FULL MEMBER > UFS TRIAL > UPLOADER > SUPER UPLOADER > UFS ELITE>MODERATOR>


    +


  2.    Sponsored Links




  3. #2
    The best creator in UFS Awatar Pan Tadeusz
     Informacje : 
    Dołączył
    Feb 2010
    Skąd
    Biały
    Posty
    3,165
     Statystyki uploadów : 
    Filmy
    506
    Gry
    17
    Programy
    4
    Seriale
    34
    Muzyka
    137
    Porno
    123
    Małe upy
    4
     Łączny upload : 
    P2M UP
    988.2 GB
     Zapostowane konta : 
    Total CA
    96055
     Podziękowania : 
    Podziękował: 418
    Doceniono: 1,064 razy w 568 postach
    Pan Tadeusz jest nieaktywny

    Domyślnie

    niezatwierdzone
    Ostatnio edytowane przez Pan Tadeusz ; 20-02-2012 o 17:26





    Member -> UFS Trial -> UFS Kreator -> UFS Elite Kreator -> Moderator-> Retired -> UFS Elite Uploader -> ? ? ?

    Pobrałeś plik? SKOMENTUJ GO! Innym przyda się Twoja opinia.

    W razie problemów z moim uploadem, proszę pisać PW !

  4. #3
    Full Member
     Informacje : 
    Dołączył
    Jan 2011
    Posty
    371
     Podziękowania : 
    Podziękował: 314
    Doceniono: 0 razy w 0 postach
    Kanibal jest nieaktywny

    Domyślnie

    fajne to ?

  5. #4
    Member
     Informacje : 
    Dołączył
    May 2009
    Posty
    12
     Podziękowania : 
    Podziękował: 9
    Doceniono: 0 razy w 0 postach
    kaniew90 jest nieaktywny

    Domyślnie

    linki padly prosze o naprawe

  6. #5
    Gdzie są pieniądze za las?! Awatar Stachu
     Informacje : 
    Dołączył
    Oct 2007
    Skąd
    Köln
    Posty
    9,239
     Statystyki uploadów : 
    Filmy
    892
    Gry
    597
    Programy
    14
    Seriale
    297
    Muzyka
    87
    Porno
    69
    Inne
    66
    Małe upy
    12
     Łączny upload : 
    P2M UP
    8184.15 GB
     Zapostowane konta : 
    Total CA
    14861
     Podziękowania : 
    Podziękował: 248
    Doceniono: 36,195 razy w 1,147 postach
     Total HTTP Upload : 
    HTTP UP: 0.7 GB
    Stachu jest nieaktywny

    Domyślnie

    A gdzie są te linki? Bo ja nie widze
    Member -> Full Member -> UFS Trial -> UFS Uploader -> UFS Elite -> Moderator -> UFS Elite -> Super Vip -> Elite Kreator -> Elite Uploader -> Super Vip -> Elite Uploader -> Super Vip
    Intel Core i5 2500 3.3GHz
    SilentiumPC
    Asus H61
    Kingston HyperX 16GB DDR3 1600MHz
    Seagate 500GB
    Toshiba 320GB
    Seagate Desktop HDD 2TB
    GoodRam SSD 120GB
    Gigabyte GeForce 1060 6GB XTreme OC
    Nagrywarka Asus
    Thermaltake Modular SE 530W
    Zalman 3 Plus White



Informacje o wątku

Użytkownicy przeglądający ten wątek

Aktualnie 1 użytkownik(ów) przegląda ten wątek. (0 zarejestrowany(ch) oraz 1 gości)

Podobne wątki

  1. 0.7GB The Woman in Black [2012][BDRip][ENG]
    Przez Look w dziale HQ (High Quality - Wysoka Jakość)
    Odpowiedzi: 2
    Ostatni post / autor: 09-05-2012, 18:31

Uprawnienia umieszczania postów

  • Nie możesz zakładać nowych tematów
  • Nie możesz pisać wiadomości
  • Nie możesz dodawać załączników
  • Nie możesz edytować swoich postów
  •