Aktualizacje seriali
 



Ogłoszenia
UFS - dotacje
Dotacje SMS
Jak korzystać z forumowej szukajki



Pokaż wyniki od 1 do 2 z 2

Wątek: Kokowääh [2011][DVDRip][ENG][Napisy PL]

  1. #1
    Banned user
     Informacje : 
    Dołączył
    Jan 2010
    Skąd
    z Twojej szafy!
    Posty
    949
     Statystyki uploadów : 
    Filmy
    463
    Gry
    19
    Programy
    6
    Seriale
    11
    Muzyka
    17
    Porno
    7
    Inne
    1
     Łączny upload : 
    P2M UP
    1478.8 GB
     Zapostowane konta : 
    Total CA
    1505
     Podziękowania : 
    Podziękował: 0
    Doceniono: 206 razy w 109 postach
    eMPeK jest nieaktywny

    mh Kokowääh [2011][DVDRip][ENG][Napisy PL]

    Kokowääh



    Produkcja: Niemcy
    Data Premiery: 2011-02-03 (świat)
    Reżyseria: Til Schweiger
    Scenariusz: Til Schweiger, Béla Jarzyk
    Czas trwania: 123 minut
    Gatunek: Komedia
    Ocena: 6.0



    Film opowiada historię pewnego artysty który dowiaduje się że ma ośmioletnią córkę.



    Henry - Til Schweiger
    Robotnik - Numan Acar
    Charlotte - Meret Becker
    Bine - Anna Julia Kapfelsperger







    Format : AVI
    Format/Info : Audio Video Interleave
    File size : 925 MiB
    Duration : 2h 1mn
    Overall bit rate : 1 065 Kbps
    Writing application : VirtualDubMod 1.5.10.2 (build 2542/release)
    Writing library : VirtualDubMod build 2542/release

    Video
    ID : 0
    Format : MPEG-4 Visual
    Format profile : Advanced Simple@L5
    Format settings, BVOP : 1
    Format settings, QPel : No
    Format settings, GMC : No warppoints
    Format settings, Matrix : Default (H.263)
    Muxing mode : Packed bitstream
    Codec ID : XVID
    Codec ID/Hint : XviD
    Duration : 2h 1mn
    Bit rate : 864 Kbps
    Width : 624 pixels
    Height : 352 pixels
    Display aspect ratio : 16:9
    Frame rate : 25.000 fps
    Color space : YUV
    Chroma subsampling : 4:2:0
    Bit depth : 8 bits
    Scan type : Progressive
    Compression mode : Lossy
    Bits/(Pixel*Frame) : 0.157
    Stream size : 750 MiB (81%)
    Writing library : XviD 1.1.0 (UTC 2005-11-22)

    Audio
    ID : 1
    Format : MPEG Audio
    Format version : Version 1
    Format profile : Layer 3
    Codec ID : 55
    Codec ID/Hint : MP3
    Duration : 2h 1mn
    Bit rate mode : Constant
    Bit rate : 192 Kbps
    Channel(s) : 2 channels
    Sampling rate : 48.0 KHz
    Compression mode : Lossy
    Stream size : 167 MiB (18%)
    Alignment : Split accross interleaves
    Interleave, duration : 40 ms (1.00 video frame)
    Interleave, preload duration : 500 ms
    Writing library : LAME3.98.4



    Nazwa pliku: Kokowaah.2011.PLSUBBED.DVDRip.XViD-SLiSU.avi
    Rozmiar Pliku: 925,10 MB
    Rozmiar segmentu: 7,00 MB
    Liczba segmentów: 133
    Liczba mirrorów: 10
    ----------
    Hasło: www.ufs.pl

    Masz problem z programem MoorHunt? Zajrzyj do działu Poradniki & FAQ tego programu.
    Zalecamy pobieranie za pomocą MailShare







    Przepraszamy, ale nie możesz zobaczyć tego tematu. Musisz sie Zarejestrować
    albo Zalogować


  2. Liczba osób które doceniły autora: 1


  3.    Sponsored Links




  4. #2
    Full Member Awatar Novy
     Informacje : 
    Dołączył
    Jun 2010
    Skąd
    Stamtąd
    Posty
    5,919
     Statystyki uploadów : 
    Filmy
    147
    Gry
    143
    Programy
    18
    Seriale
    40
    Muzyka
    18
    Porno
    869
    Inne
    2
    Małe upy
    17
     Łączny upload : 
    P2M UP
    2181.55 GB
     Zapostowane konta : 
    Total CA
    4105
     Podziękowania : 
    Podziękował: 589
    Doceniono: 41,193 razy w 854 postach
    Novy jest nieaktywny

    Domyślnie

    niezatwierdzone
    Ostatnio edytowane przez Novy ; 17-02-2012 o 11:49

Informacje o wątku

Użytkownicy przeglądający ten wątek

Aktualnie 1 użytkownik(ów) przegląda ten wątek. (0 zarejestrowany(ch) oraz 1 gości)

Podobne wątki

  1. A Few Best Men [2011][DVDRip][AC3][ENG][Napisy PL]
    Przez Pan Tadeusz w dziale HQ (High Quality - Wysoka Jakość)
    Odpowiedzi: 1
    Ostatni post / autor: 17-07-2012, 16:49
  2. The Cat [2011][DVDRip][AC3][KOR][Napisy PL]
    Przez akira5 w dziale HQ (High Quality - Wysoka Jakość)
    Odpowiedzi: 2
    Ostatni post / autor: 07-03-2012, 19:49

Uprawnienia umieszczania postów

  • Nie możesz zakładać nowych tematów
  • Nie możesz pisać wiadomości
  • Nie możesz dodawać załączników
  • Nie możesz edytować swoich postów
  •