Aktualizacje seriali
 



Ogłoszenia
UFS - dotacje
Dotacje SMS
Jak korzystać z forumowej szukajki



Pokaż wyniki od 1 do 4 z 4

Wątek: 200 M.P.H. [2011][DVDRip][ENG]

  1. #1
    Gdzie są pieniądze za las?! Awatar Stachu
     Informacje : 
    Dołączył
    Oct 2007
    Skąd
    Köln
    Posty
    9,239
     Statystyki uploadów : 
    Filmy
    892
    Gry
    597
    Programy
    14
    Seriale
    297
    Muzyka
    87
    Porno
    69
    Inne
    66
    Małe upy
    12
     Łączny upload : 
    P2M UP
    8184.15 GB
     Zapostowane konta : 
    Total CA
    14861
     Podziękowania : 
    Podziękował: 248
    Doceniono: 36,195 razy w 1,147 postach
     Total HTTP Upload : 
    HTTP UP: 0.7 GB
    Stachu jest nieaktywny

    mh 200 M.P.H. [2011][DVDRip][ENG]

    200 M.P.H.



    Produkcja: USA

    Gatunek: Akcja

    Data premiery: 26 kwietnia 2011 (Świat)

    Reżyseria: Cole S. McKay

    Scenariusz: Thunder Levin




    Po śmierci starszego brata, który zginął w wypadku samochodowym, Rick młody kierowca wyścigowy jest pogrążony w świecie nielegalnych wyścigów ulicznych, z narażeniem życia jeździ dla zemsty...




    Jaz Martin ... Rick Merchant

    Hennely Jimenez ... Kelly Garcia

    AnnaMaria Demara ... Claudia

    Darren Anthony Thomas ... Kayce (as Darren Thomas)

    Zedrick Restauro ... Phong

    Jared Kahn ... Albert (as Jared M. Kahn)

    Paul Logan ... Officer Flynn

    Janet Tracy Keijser ... Debbie Merchant (as Janet T. Keijser)

    Tommy Nash ... Tom Merchant

    Sam Aaron ... Lou

    Cleo Berry ... Jake

    Makelaie ... Domingo Juarez (as Makelaie Brown)

    Pason ... Amber

    Sean C. Cooper ... Attendant (as Sean Cory Cooper)

    Meredith Thomas ... Cherrie the Manager







    General

    Complete name : 200mph.DVDRip.Xvid.avi

    Format : AVI

    Format/Info : Audio Video Interleave

    File size : 699 MiB

    Duration : 1h 32mn

    Overall bit rate : 1 060 Kbps

    Writing application : VirtualDubMod 1.5.10.2 (build 2540/release)

    Writing library : VirtualDubMod build 2540/release



    Video

    ID : 0

    Format : MPEG-4 Visual

    Format profile : Advanced Simple@L5

    Format settings, BVOP : 2

    Format settings, QPel : No

    Format settings, GMC : No warppoints

    Format settings, Matrix : Default (H.263)

    Muxing mode : Packed bitstream

    Codec ID : XVID

    Codec ID/Hint : XviD

    Duration : 1h 32mn

    Bit rate : 917 Kbps

    Width : 640 pixels

    Height : 352 pixels

    Display aspect ratio : 16:9

    Frame rate : 23.976 fps

    Color space : YUV

    Chroma subsampling : 4:2:0

    Bit depth : 8 bits

    Scan type : Progressive

    Compression mode : Lossy

    Bits/(Pixel*Frame) : 0.170

    Stream size : 605 MiB (87%)

    Writing library : XviD 1.2.1 (UTC 2008-12-04)



    Audio

    ID : 1

    Format : MPEG Audio

    Format version : Version 1

    Format profile : Layer 3

    Mode : Joint stereo

    Mode extension : MS Stereo

    Codec ID : 55

    Codec ID/Hint : MP3

    Duration : 1h 32mn

    Bit rate mode : Variable

    Bit rate : 128 Kbps

    Channel(s) : 2 channels

    Sampling rate : 48.0 KHz

    Compression mode : Lossy

    Stream size : 85.9 MiB (12%)

    Alignment : Aligned on interleaves

    Interleave, duration : 24 ms (0.58 video frame)

    Interleave, preload duration : 141 ms

    Writing library : LAME3.90.

    Encoding settings : -m j -V 4 -q 2 -lowpass 17.6 --abr 128




    Nazwa pliku: 200mph.DVDRip.Xvid.avi
    Rozmiar Pliku: 699,18 MB
    Rozmiar segmentu: 7,00 MB
    Liczba segmentów: 100
    Liczba mirrorów: 8

    Hasło: www.ufs.pl

    Masz problem z programem MoorHunt? Zajrzyj do działu Poradniki & FAQ tego programu.
    Zalecamy pobieranie za pomocą MailShare







    Przepraszamy, ale nie możesz zobaczyć tego tematu. Musisz sie Zarejestrować
    albo Zalogować

    Upload wykonany w MH 0.6.7.2
    Member -> Full Member -> UFS Trial -> UFS Uploader -> UFS Elite -> Moderator -> UFS Elite -> Super Vip -> Elite Kreator -> Elite Uploader -> Super Vip -> Elite Uploader -> Super Vip
    Intel Core i5 2500 3.3GHz
    SilentiumPC
    Asus H61
    Kingston HyperX 16GB DDR3 1600MHz
    Seagate 500GB
    Toshiba 320GB
    Seagate Desktop HDD 2TB
    GoodRam SSD 120GB
    Gigabyte GeForce 1060 6GB XTreme OC
    Nagrywarka Asus
    Thermaltake Modular SE 530W
    Zalman 3 Plus White



  2.    Sponsored Links




  3. #2
    The best creator in UFS Awatar Pan Tadeusz
     Informacje : 
    Dołączył
    Feb 2010
    Skąd
    Biały
    Posty
    3,165
     Statystyki uploadów : 
    Filmy
    506
    Gry
    17
    Programy
    4
    Seriale
    34
    Muzyka
    137
    Porno
    123
    Małe upy
    4
     Łączny upload : 
    P2M UP
    988.2 GB
     Zapostowane konta : 
    Total CA
    96055
     Podziękowania : 
    Podziękował: 418
    Doceniono: 1,064 razy w 568 postach
    Pan Tadeusz jest nieaktywny

    Domyślnie

    Ostatnio edytowane przez Pan Tadeusz ; 19-01-2012 o 16:27





    Member -> UFS Trial -> UFS Kreator -> UFS Elite Kreator -> Moderator-> Retired -> UFS Elite Uploader -> ? ? ?

    Pobrałeś plik? SKOMENTUJ GO! Innym przyda się Twoja opinia.

    W razie problemów z moim uploadem, proszę pisać PW !

  4. #3
    Full Member
     Informacje : 
    Dołączył
    Dec 2011
    Posty
    914
     Podziękowania : 
    Podziękował: 854
    Doceniono: 7 razy w 5 postach
    marekvip10 jest nieaktywny

    Domyślnie

    Kolejna marna imitacja fast and furious

  5. #4
    Full Member
     Informacje : 
    Dołączył
    Feb 2007
    Posty
    1,158
     Podziękowania : 
    Podziękował: 1,155
    Doceniono: 0 razy w 0 postach
    luzakos jest nieaktywny

    Domyślnie

    To jest dopiero tragedia,a nie film.

Informacje o wątku

Użytkownicy przeglądający ten wątek

Aktualnie 1 użytkownik(ów) przegląda ten wątek. (0 zarejestrowany(ch) oraz 1 gości)

Uprawnienia umieszczania postów

  • Nie możesz zakładać nowych tematów
  • Nie możesz pisać wiadomości
  • Nie możesz dodawać załączników
  • Nie możesz edytować swoich postów
  •