Aktualizacje seriali
 



Ogłoszenia
UFS - dotacje
Dotacje SMS
Jak korzystać z forumowej szukajki



Pokaż wyniki od 1 do 5 z 5

Wątek: Margin Call [2011][R5 DVDRip][AC3-5.1][ENG]

  1. #1
    Szynka jest tylko jedna
     Informacje : 
    Dołączył
    Jun 2009
    Posty
    860
     Statystyki uploadów : 
    Filmy
    302
    Gry
    43
    Programy
    2
    Seriale
    45
    Muzyka
    1
    Porno
    15
    Inne
    2
    Małe upy
    13
     Łączny upload : 
    P2M UP
    1023.95 GB
     Zapostowane konta : 
    Total CA
    35
     Podziękowania : 
    Podziękował: 38
    Doceniono: 634 razy w 164 postach
    Szynek jest nieaktywny

    mh Margin Call [2011][R5 DVDRip][AC3-5.1][ENG]

    Margin Call



    Produkcja: USA
    Data Premiery: 2011-10-21 (świat)
    Reżyseria: J.C. Chandor
    Scenariusz: J.C. Chandor
    Czas trwania: 109 minut
    Dystrybucja:
    Gatunek: Thriller
    Ocena: 6.0



    A thriller that revolves around the key people at a investment bank over a 24-hour period
    during the early stages of the financial crisis



    Sam Rogers - Kevin Spacey
    Will Emerson - Paul Bettany
    John Tuld - Jeremy Irons
    Peter Sullivan - Zachary Quinto
    Seth Bregman - Penn Badgley
    Jared Cohen - Simon Baker
    Mary Rogers - Mary McDonnell
    Sarah Robertson - Demi Moore









    General
    Complete name: Margin.Call.2011.R5.DVDRip.XVID.AC3-5.1.HQ.Hive-CM8.avi
    Format: AVI
    Format/Info: Audio Video Interleave
    File size: 1.61 GiB
    Duration: 1h 42mn
    Overall bit rate: 2 258 Kbps
    Writing application: Nandub v1.0rc2
    Writing library: Nandub build 1853/release

    Video
    ID: 0
    Format: MPEG-4 Visual
    Format profile: Advanced Simple@L5
    Format settings, BVOP: 2
    Format settings, QPel: Yes
    Format settings, GMC: No warppoints
    Format settings, Matrix: Default (H.263)
    Muxing mode: Packed bitstream
    Codec ID: XVID
    Codec ID/Hint: XviD
    Duration: 1h 42mn
    Bit rate: 1 800 Kbps
    Width: 720 pixels
    Height: 384 pixels
    Display aspect ratio: 1.875
    Frame rate: 25.000 fps
    Color space: YUV
    Chroma subsampling: 4:2:0
    Bit depth: 8 bits
    Scan type: Progressive
    Compression mode: Lossy
    Bits/(Pixel*Frame): 0.260
    Stream size: 1.28 GiB (80%)
    Writing library: XviD 1.2.1 (UTC 2008-12-04)

    Audio
    ID: 1
    Format: AC-3
    Format/Info: Audio Coding 3
    Mode extension: CM (complete main)
    Codec ID: 2000
    Duration: 1h 42mn
    Bit rate mode: Constant
    Bit rate: 448 Kbps
    Channel(s): 6 channels
    Channel positions: Front: L C R, Side: L R, LFE
    Sampling rate: 48.0 KHz
    Bit depth: 16 bits
    Compression mode: Lossy
    Stream size: 327 MiB (20%)
    Alignment: Split accross interleaves
    Interleave, duration: 40 ms (1.00 video frame)
    Interleave, preload duration: 500 ms



    Nazwa pliku: Margin.Call.2011.R5.DVDRip.XVID.AC3-5.1.HQ.Hive-CM8.rar
    Rozmiar Pliku: 1.67 GB
    Rozmiar segmentu: 7.00 MB
    Liczba segmentów: 258
    Liczba mirrorów: 9
    Hasło: www.ufs.pl

    Masz problem z programem MoorHunt? Zajrzyj do działu Poradniki & FAQ tego programu.
    Zalecamy pobieranie za pomocą MailShare







    Przepraszamy, ale nie możesz zobaczyć tego tematu. Musisz sie Zarejestrować
    albo Zalogować

    Upload zawiera 10% danych naprawczych!
    Jak korzystać z danych naprawczych? Tutaj znajdziesz poradnik!
    Upload wykonany w MH 0.6.7.2

  2. Liczba osób które doceniły autora: 1


  3.    Sponsored Links




  4. #2
    Impeccable Awatar Kingpin
     Informacje : 
    Dołączył
    May 2008
    Skąd
    Paris XVII arr
    Posty
    5,509
     Statystyki uploadów : 
    Filmy
    607
    Gry
    211
    Programy
    19
    Seriale
    22
    Muzyka
    2
    Porno
    12
    Inne
    2
     Łączny upload : 
    P2M UP
    3523.05 GB
     Zapostowane konta : 
    Total CA
    2120
     Podziękowania : 
    Podziękował: 1,708
    Doceniono: 59,264 razy w 521 postach
    Kingpin jest nieaktywny

    Domyślnie

    Ostatnio edytowane przez Kingpin ; 20-11-2011 o 19:38


    מֶלֶך


  5. #3
    meaurte
    Guest
     Podziękowania : 

    Domyślnie

    34 segment zly!!!!Prosimy o poprawke.Zla suma kontrolna....

  6. #4
    Gdzie są pieniądze za las?! Awatar Stachu
     Informacje : 
    Dołączył
    Oct 2007
    Skąd
    Köln
    Posty
    9,239
     Statystyki uploadów : 
    Filmy
    892
    Gry
    597
    Programy
    14
    Seriale
    297
    Muzyka
    87
    Porno
    69
    Inne
    66
    Małe upy
    12
     Łączny upload : 
    P2M UP
    8184.15 GB
     Zapostowane konta : 
    Total CA
    14861
     Podziękowania : 
    Podziękował: 248
    Doceniono: 36,199 razy w 1,147 postach
     Total HTTP Upload : 
    HTTP UP: 0.7 GB
    Stachu jest nieaktywny

    Domyślnie

    Upload sprawny!
    Member -> Full Member -> UFS Trial -> UFS Uploader -> UFS Elite -> Moderator -> UFS Elite -> Super Vip -> Elite Kreator -> Elite Uploader -> Super Vip -> Elite Uploader -> Super Vip
    Intel Core i5 2500 3.3GHz
    SilentiumPC
    Asus H61
    Kingston HyperX 16GB DDR3 1600MHz
    Seagate 500GB
    Toshiba 320GB
    Seagate Desktop HDD 2TB
    GoodRam SSD 120GB
    Gigabyte GeForce 1060 6GB XTreme OC
    Nagrywarka Asus
    Thermaltake Modular SE 530W
    Zalman 3 Plus White



  7. #5
    Szynka jest tylko jedna
     Informacje : 
    Dołączył
    Jun 2009
    Posty
    860
     Statystyki uploadów : 
    Filmy
    302
    Gry
    43
    Programy
    2
    Seriale
    45
    Muzyka
    1
    Porno
    15
    Inne
    2
    Małe upy
    13
     Łączny upload : 
    P2M UP
    1023.95 GB
     Zapostowane konta : 
    Total CA
    35
     Podziękowania : 
    Podziękował: 38
    Doceniono: 634 razy w 164 postach
    Szynek jest nieaktywny

    Domyślnie

    Cytat Zamieszczone przez meaurte Zobacz posta
    34 segment zly!!!!Prosimy o poprawke.Zla suma kontrolna....
    Łżesz




    Przepraszamy, ale nie możesz zobaczyć tego tematu. Musisz sie Zarejestrować
    albo Zalogować


Informacje o wątku

Użytkownicy przeglądający ten wątek

Aktualnie 1 użytkownik(ów) przegląda ten wątek. (0 zarejestrowany(ch) oraz 1 gości)

Uprawnienia umieszczania postów

  • Nie możesz zakładać nowych tematów
  • Nie możesz pisać wiadomości
  • Nie możesz dodawać załączników
  • Nie możesz edytować swoich postów
  •