Aktualizacje seriali
 



Ogłoszenia
UFS - dotacje
Dotacje SMS
Jak korzystać z forumowej szukajki



Pokaż wyniki od 1 do 3 z 3

Wątek: Friends with Benefits [2011][R5][ENG]

  1. #1
    .::dEpeChe mOde::. Awatar DM
     Informacje : 
    Dołączył
    Mar 2008
    Skąd
    Klucze
    Posty
    2,747
     Statystyki uploadów : 
    Filmy
    347
    Gry
    16
    Programy
    1
    Seriale
    43
    Muzyka
    3
    Porno
    7
    Inne
    9
     Łączny upload : 
    P2M UP
    1723.92 GB
     Zapostowane konta : 
    Total CA
    1275
     Podziękowania : 
    Podziękował: 840
    Doceniono: 39,357 razy w 265 postach
    DM jest nieaktywny

    mh Friends with Benefits [2011][R5][ENG]

    To tylko sex / Friends with Benefits



    Produkcja: USA
    Gatunek: Komedia
    Data Premiery: 2011-09-23 (kino), 2011-07-22 (świat)
    Reżyseria: Will Gluck
    Scenariusz: Will Gluck, Keith Merryman (również) (historia)
    Czas trwania: 109 minut



    Dwójka zapracowanych, młodych ludzi Dylan (Justin Timberlake) i Jamie (Mila Kunis) myślą, że pójdzie łatwo, gdy wzbogacą ich przyjaźń o seks, mimo tego, w co każą wierzyć komedie romantyczne z Hollywood. Szybko odkrywają jednak, że taki układ zawsze prowadzi do komplikacji. (ferhin2)



    Mila Kunis - Jamie
    Justin Timberlake - Dylan
    Emma Stone - Kayla
    Woody Harrelson - Tommy
    Jenna Elfman - Annie
    Patricia Clarkson - Lorna
    Richard Jenkins - Pan Harper
    Andy Samberg - Quincy



    ID : 0
    Format : MPEG-4 Visual
    Format profile : Advanced Simple@L5
    Format settings, BVOP : 2
    Format settings, QPel : No
    Format settings, GMC : No warppoints
    Format settings, Matrix : Default (MPEG)
    Muxing mode : Packed bitstream
    Codec ID : XVID
    Codec ID/Hint : XviD
    Duration : 1h 44mn
    Bit rate : 1 731 Kbps
    Width : 720 pixels
    Height : 304 pixels
    Display aspect ratio : 2.35:1
    Frame rate : 25.000 fps
    Color space : YUV
    Chroma subsampling : 4:2:0
    Bit depth : 8 bits
    Scan type : Progressive
    Compression mode : Lossy
    Bits/(Pixel*Frame) : 0.316
    Stream size : 1.27 GiB (93%)
    Writing library : XviD 64

    Audio
    ID : 1
    Format : MPEG Audio
    Format version : Version 1
    Format profile : Layer 3
    Mode : Joint stereo
    Mode extension : MS Stereo
    Codec ID : 55
    Codec ID/Hint : MP3
    Duration : 1h 44mn
    Bit rate mode : Constant
    Bit rate : 128 Kbps
    Channel(s) : 2 channels
    Sampling rate : 44.1 KHz
    Compression mode : Lossy
    Stream size : 96.1 MiB (7%)
    Alignment : Split accross interleaves
    Interleave, duration : 40 ms (1.00 video frame)








    [img][/img]



    Nazwa pliku: Friends with Benefits 2011 R5 LiNE READNFO XViD - IMAGiNE.avi
    Ilość segmentów: 201
    Rozmiar segmentu: 7MB
    Wielkość uploadu: 1.4GB
    Ilość mirrorów: 9
    Hasło do scalenia: www.ufs.pl







    Przepraszamy, ale nie możesz zobaczyć tego tematu. Musisz sie Zarejestrować
    albo Zalogować








    Kliknij w dziękuje a zobaczysz HC

    <------------------


  2. Liczba osób które doceniły autora: 2


  3.    Sponsored Links




  4. #2
    Gdzie są pieniądze za las?! Awatar Stachu
     Informacje : 
    Dołączył
    Oct 2007
    Skąd
    Köln
    Posty
    9,239
     Statystyki uploadów : 
    Filmy
    892
    Gry
    597
    Programy
    14
    Seriale
    297
    Muzyka
    87
    Porno
    69
    Inne
    66
    Małe upy
    12
     Łączny upload : 
    P2M UP
    8184.15 GB
     Zapostowane konta : 
    Total CA
    14861
     Podziękowania : 
    Podziękował: 248
    Doceniono: 36,199 razy w 1,147 postach
     Total HTTP Upload : 
    HTTP UP: 0.7 GB
    Stachu jest nieaktywny

    Domyślnie

    niezatwierdzone
    Member -> Full Member -> UFS Trial -> UFS Uploader -> UFS Elite -> Moderator -> UFS Elite -> Super Vip -> Elite Kreator -> Elite Uploader -> Super Vip -> Elite Uploader -> Super Vip
    Intel Core i5 2500 3.3GHz
    SilentiumPC
    Asus H61
    Kingston HyperX 16GB DDR3 1600MHz
    Seagate 500GB
    Toshiba 320GB
    Seagate Desktop HDD 2TB
    GoodRam SSD 120GB
    Gigabyte GeForce 1060 6GB XTreme OC
    Nagrywarka Asus
    Thermaltake Modular SE 530W
    Zalman 3 Plus White



  5. #3
    Gdzie są pieniądze za las?! Awatar Stachu
     Informacje : 
    Dołączył
    Oct 2007
    Skąd
    Köln
    Posty
    9,239
     Statystyki uploadów : 
    Filmy
    892
    Gry
    597
    Programy
    14
    Seriale
    297
    Muzyka
    87
    Porno
    69
    Inne
    66
    Małe upy
    12
     Łączny upload : 
    P2M UP
    8184.15 GB
     Zapostowane konta : 
    Total CA
    14861
     Podziękowania : 
    Podziękował: 248
    Doceniono: 36,199 razy w 1,147 postach
     Total HTTP Upload : 
    HTTP UP: 0.7 GB
    Stachu jest nieaktywny

    Domyślnie

    Upload sprawny / / Sprawdzony na zgłoszenie
    Member -> Full Member -> UFS Trial -> UFS Uploader -> UFS Elite -> Moderator -> UFS Elite -> Super Vip -> Elite Kreator -> Elite Uploader -> Super Vip -> Elite Uploader -> Super Vip
    Intel Core i5 2500 3.3GHz
    SilentiumPC
    Asus H61
    Kingston HyperX 16GB DDR3 1600MHz
    Seagate 500GB
    Toshiba 320GB
    Seagate Desktop HDD 2TB
    GoodRam SSD 120GB
    Gigabyte GeForce 1060 6GB XTreme OC
    Nagrywarka Asus
    Thermaltake Modular SE 530W
    Zalman 3 Plus White



Informacje o wątku

Użytkownicy przeglądający ten wątek

Aktualnie 1 użytkownik(ów) przegląda ten wątek. (0 zarejestrowany(ch) oraz 1 gości)

Podobne wątki

  1. 0.7GB Friends with Kids [2011][DVDRip][ENG]
    Przez Bull w dziale HQ (High Quality - Wysoka Jakość)
    Odpowiedzi: 1
    Ostatni post / autor: 12-07-2012, 20:26
  2. Friends with Kids [2011][BRRip][AC3][ENG]
    Przez eMPeK w dziale HQ (High Quality - Wysoka Jakość)
    Odpowiedzi: 1
    Ostatni post / autor: 11-07-2012, 08:48
  3. 0.7GB Friends with Benefits [2011][DVDRip][ENG][Napisy PL]
    Przez eMPeK w dziale HQ (High Quality - Wysoka Jakość)
    Odpowiedzi: 1
    Ostatni post / autor: 17-02-2012, 11:12

Uprawnienia umieszczania postów

  • Nie możesz zakładać nowych tematów
  • Nie możesz pisać wiadomości
  • Nie możesz dodawać załączników
  • Nie możesz edytować swoich postów
  •