Aktualizacje seriali
 



Ogłoszenia
UFS - dotacje
Dotacje SMS
Jak korzystać z forumowej szukajki



Pokaż wyniki od 1 do 2 z 2

Wątek: 4 3 2 1 [2010][BDRip][AC3][ENG]

  1. #1
    Szynka jest tylko jedna
     Informacje : 
    Dołączył
    Jun 2009
    Posty
    860
     Statystyki uploadów : 
    Filmy
    302
    Gry
    43
    Programy
    2
    Seriale
    45
    Muzyka
    1
    Porno
    15
    Inne
    2
    Małe upy
    13
     Łączny upload : 
    P2M UP
    1023.95 GB
     Zapostowane konta : 
    Total CA
    35
     Podziękowania : 
    Podziękował: 38
    Doceniono: 634 razy w 164 postach
    Szynek jest nieaktywny

    mh 4 3 2 1 [2010][BDRip][AC3][ENG]

    4 3 2 1



    Produkcja: Wielka Brytania
    Gatunek: Kryminał, Thiller
    Data Premiery: 2010-06-02 (świat)
    Reżyseria: Noel Clarke, Mark Davis
    Scenariusz: Noel Clarke
    Czas trwania: 117 minut
    Dystrybucja:
    Ocena: 6.7



    Film przedstawia trzy ciężkie dni z życia czterech przyjaciółek, przedstawione osobno z perspektywy każdej z dziewczyn. Shannon (Ophelia Lovibond) dowiaduje się, że jej matka odchodzi od niej i od ojca, na dodatek nikt nie ma czasu jej wysłuchać więc podejmuje próbę samobójczą. Cassandra (Tamsin Egerton) leci do Nowego Jorku na przesłuchanie i żeby się spotkać ze swoim internetowym chłopakiem, którego wcześniej nie widziała. Kerrys (Shanika Warren-Markland) przeżywa swój ciężki dzień ze swoją dziewczyną i walcząc z bratem o uznanie u rodziców. Joanne (Emma Roberts) na każdym kroku ustępuje swoim rodzicom i siostrze co prowadzi do tego, że pracuje w sklepie na dwie zmiany. Losy dziewczyn łączą się między innymi za sprawą skradzionych diamentów, które występują w każdej z historii. (ferhin2)





    Joanne - Emma Roberts
    Kerrys - Shanika Warren-Markland
    Cassandra - Tamsin Egerton
    Shannon - Ophelia Lovibond
    Tee - Noel Clarke
    Latisha - Eve
    Duży Larry - Kevin Smith
    Jago Larofsky - Mandy Patinkin










    Video
    ID: 0
    Format: MPEG-4 Visual
    Format profile: Advanced Simple@L5
    Format settings, BVOP: Yes
    Format settings, QPel: No
    Format settings, GMC: No warppoints
    Format settings, Matrix: Custom
    Codec ID: XVID
    Codec ID/Hint: XviD
    Duration: 1h 24mn
    Bit rate: 1 398 Kbps
    Width: 720pixels
    Height: 304pixels
    Display aspect ratio: 2.3.5
    Frame rate: 23.976fps
    Color space: YUV
    Chroma subsampling: 4:2:0
    Bit depth: 8 bits
    Scan type: Progressive
    Bits/(Pixel*Frame): 0.234
    Stream size: 892 MiB (86%)
    Writing library: XviD 1.2.1 (UTC 2008-12-04)

    Audio
    ID: 1
    Format: AC3
    Format/Info: Version 1
    Mode extension: Layer 3
    Codec ID: 2000
    Duration: 1h 54mn
    Bit rate mode: Constant
    Bit rate: 448Kbps
    Channel(s): 6 channels
    Channel positions: Front: L C R, Side: L R, LFE
    Sampling rate: 48.0 KHz
    Bit depth: 16 bits
    Stream size: 302 MiB
    Alignment: Aligned on interleaves
    Interleave, duration: 42 ms (1.00 video frame)
    Interleave, preload duration: 512 ms



    Nazwa pliku: 4.3.2.1.2011.BRRip.Xvid.AC3.rar
    Rozmiar Pliku: 1.49 GB
    Rozmiar segmentu: 7.00 MB
    Liczba segmentów: 219
    Liczba mirrorów: 9
    Hasło: www.ufs.pl

    Masz problem z programem MoorHunt? Zajrzyj do działu Poradniki & FAQ tego programu.
    Zalecamy pobieranie za pomocą MailShare







    Przepraszamy, ale nie możesz zobaczyć tego tematu. Musisz sie Zarejestrować
    albo Zalogować

    Upload wykonany w MH 0.6.7.2

  2.    Sponsored Links




  3. #2
    Retired Awatar depciak
     Informacje : 
    Dołączył
    Sep 2007
    Skąd
    Rzeszów
    Posty
    3,836
     Statystyki uploadów : 
    Filmy
    94
    Gry
    69
    Seriale
    51
    Muzyka
    4
    Porno
    6
    Małe upy
    2
     Łączny upload : 
    P2M UP
    1519.25 GB
     Zapostowane konta : 
    Total CA
    21035
     Podziękowania : 
    Podziękował: 3
    Doceniono: 154 razy w 67 postach
    depciak jest nieaktywny

    Domyślnie

    niezatwierdzone
    Ostatnio edytowane przez depciak ; 18-08-2011 o 21:16
    1234567890

Informacje o wątku

Użytkownicy przeglądający ten wątek

Aktualnie 1 użytkownik(ów) przegląda ten wątek. (0 zarejestrowany(ch) oraz 1 gości)

Podobne wątki

  1. You again [2010][BDRip][ENG][AC3]
    Przez hrupek w dziale HQ (High Quality - Wysoka Jakość)
    Odpowiedzi: 2
    Ostatni post / autor: 22-01-2011, 19:23

Uprawnienia umieszczania postów

  • Nie możesz zakładać nowych tematów
  • Nie możesz pisać wiadomości
  • Nie możesz dodawać załączników
  • Nie możesz edytować swoich postów
  •