Aktualizacje seriali
 



Ogłoszenia
UFS - dotacje
Dotacje SMS
Jak korzystać z forumowej szukajki



Pokaż wyniki od 1 do 2 z 2

Wątek: Jorgen + Anne = sant [2011][BDRip][NOR]

  1. #1
    Szynka jest tylko jedna
     Informacje : 
    Dołączył
    Jun 2009
    Posty
    860
     Statystyki uploadów : 
    Filmy
    302
    Gry
    43
    Programy
    2
    Seriale
    45
    Muzyka
    1
    Porno
    15
    Inne
    2
    Małe upy
    13
     Łączny upload : 
    P2M UP
    1023.95 GB
     Zapostowane konta : 
    Total CA
    35
     Podziękowania : 
    Podziękował: 38
    Doceniono: 634 razy w 164 postach
    Szynek jest nieaktywny

    mh Jorgen + Anne = sant [2011][BDRip][NOR]

    Jorgen + Anne = sant



    Tytuł: Totally True Love / Jorgen + Anne = sant
    Produkcja: Norwegia
    Gatunek: Familijny
    Czas trwania: 83 min.
    Premiera: BRAK DANYCH
    Reżyseria: Anne Sewitsky
    Scenariusz: Vigdis Hjorth, Kamilla Krogsveen



    Główną bohaterką filmu jest Anne, 10-letnia dziewczynka z prowincjonalnego miasteczka w Norwegii, która zakochuje się w swoim rówieśniu i sąsiedzie, Jorgenie. Pierwsza miłość okaże się dla nich pełna wspaniałych momentów, ale także wielu trudności.



    Morten Faldaas, Birgitte Victoria Svendsen and Silje Breivik









    Details

    Format: AVI
    Format/Info: Audio Video Interleave
    File size: 702 MiB
    Duration: 1h 23mn
    Overall bit rate: 1 182 Kbps
    Writing application: VirtualDubMod 1.5.10.2 (build 2540/release)
    Writing library: VirtualDubMod build 2540/release

    Video
    ID: 0
    Format: MPEG-4 Visual
    Format profile: Advanced Simple@L5
    Format settings, BVOP: 2
    Format settings, QPel: No
    Format settings, GMC: No warppoints
    Format settings, Matrix: Default (H.263)
    Codec ID: XVID
    Codec ID/Hint: XviD
    Duration: 1h 23mn
    Bit rate: 1 038 Kbps
    Width: 640 pixels
    Height: 272 pixels
    Display aspect ratio: 2.35:1
    Frame rate: 25.000 fps
    Color space: YUV
    Chroma subsampling: 4:2:0
    Bit depth: 8 bits
    Scan type: Progressive
    Compression mode: Lossy
    Bits/(Pixel*Frame): 0.239
    Stream size: 617 MiB (88%)
    Writing library: XviD 61

    Audio
    ID: 1
    Format: MPEG Audio
    Format version: Version 1
    Format profile: Layer 3
    Mode: Joint stereo
    Mode extension: MS Stereo
    Codec ID: 55
    Codec ID/Hint: MP3
    Duration: 1h 23mn
    Bit rate mode: Variable
    Bit rate: 130 Kbps
    Minimum bit rate: 128 Kbps
    Channel(s): 2 channels
    Sampling rate: 48.0 KHz
    Compression mode: Lossy
    Stream size: 77.3 MiB (11%)
    Alignment: Aligned on interleaves
    Interleave, duration: 24 ms (0.60 video frame)
    Interleave, preload duration: 141 ms
    Writing library: LAME3.95
    Encoding settings: -m j -V 4 -q 3 -lowpass 18 --vbr-old -b 128




    Nazwa pliku: Totally.True.Love.2011.BDRip.XviD.rar
    Rozmiar Pliku: 753.34 MB
    Rozmiar segmentu: 7.00 MB
    Liczba segmentów: 108
    Liczba mirrorów: 8
    Hasło: www.ufs.pl

    Masz problem z programem MoorHunt? Zajrzyj do działu Poradniki & FAQ tego programu.
    Zalecamy pobieranie za pomocą MailShare


    Jeżeli nie widzisz hashcode i nie wiesz co zrobić kliknij tutaj






    Przepraszamy, ale nie możesz zobaczyć tego tematu. Musisz sie Zarejestrować
    albo Zalogować

    Upload zawiera 10% danych naprawczych!
    Jak korzystać z danych naprawczych? Tutaj znajdziesz poradnik!
    Upload wykonany w MH 0.6.7.2
    Ostatnio edytowane przez Szynek ; 06-08-2011 o 18:57

  2.    Sponsored Links




  3. #2
    Retired Awatar Freddy
     Informacje : 
    Dołączył
    Nov 2007
    Skąd
    Zasiedmiogórogrodzie
    Posty
    3,804
     Statystyki uploadów : 
    Filmy
    179
    Gry
    159
    Programy
    5
    Seriale
    143
    Muzyka
    26
    Porno
    52
    Inne
    4
    Małe upy
    3
     Łączny upload : 
    P2M UP
    1538.4 GB
     Zapostowane konta : 
    Total CA
    9305
     Podziękowania : 
    Podziękował: 243
    Doceniono: 546 razy w 239 postach
    Freddy jest nieaktywny

    Domyślnie

    niezatwierdzone



    ----


    ----


    100% moich uploadów spakowanych w rarze zawiera dane naprawcze.
    ----

Informacje o wątku

Użytkownicy przeglądający ten wątek

Aktualnie 1 użytkownik(ów) przegląda ten wątek. (0 zarejestrowany(ch) oraz 1 gości)

Podobne wątki

  1. 0.7GB 360 [2011][BDRip][ENG]
    Przez eMPeK w dziale HQ (High Quality - Wysoka Jakość)
    Odpowiedzi: 3
    Ostatni post / autor: 09-07-2012, 20:55

Uprawnienia umieszczania postów

  • Nie możesz zakładać nowych tematów
  • Nie możesz pisać wiadomości
  • Nie możesz dodawać załączników
  • Nie możesz edytować swoich postów
  •