Aktualizacje seriali
 



Ogłoszenia
UFS - dotacje
Dotacje SMS
Jak korzystać z forumowej szukajki



Pokaż wyniki od 1 do 3 z 3

Wątek: YellowBrickRoad [2010][DVDScr][ENG]

  1. #1
    VIP Awatar Bull
     Informacje : 
    Dołączył
    Dec 2007
    Posty
    392
     Statystyki uploadów : 
    Filmy
    129
    Gry
    11
    Seriale
    1
    Porno
    7
     Łączny upload : 
    P2M UP
    319.9 GB
     Podziękowania : 
    Podziękował: 470
    Doceniono: 102 razy w 25 postach
    Bull jest nieaktywny

    mh YellowBrickRoad [2010][DVDScr][ENG]

    YellowBrickRoad



    Produkcja: USA
    Gatunek: Thriller
    Data Premiery: 23.01.2010 - Świat
    Reżyseria: Jesse Holland, Andy Mitton
    Scenariusz: Jesse Holland, Andy Mitton
    Czas trwania: 100 min.




    W 1940 roku 572 mieszkańców Friar New Hampshire udało się w głąb lasu. Niedługo później okazało się, że wszyscy oni zginęli w dziwnych okolicznościach. 70 lat później grupa przyjaciół postanawia odkryć, co wydarzyło się tamtego dnia.



    Liv McCann - Laura Heisler
    Melissa Barnes - Anessa Ramsey
    Clerk / Usher - Lee Wilkof
    Daryl Luger - Clark Freeman







    Video
    ID : 0
    Format : xvid
    Codec ID : xvid
    Duration : 1h 40mn
    Bit rate : 381 Kbps
    Width : 640 pixels
    Height : 360 pixels
    Display aspect ratio : 16:9
    Frame rate : 29.970 fps
    Bits/(Pixel*Frame) : 0.055
    Stream size : 274 MiB (21%)

    Audio
    ID : 1
    Format : MPEG Audio
    Format version : Version 1
    Format profile : Layer 3
    Mode : Joint stereo
    Mode extension : MS Stereo
    Codec ID : 55
    Codec ID/Hint : MP3
    Duration : 1h 40mn
    Bit rate mode : Constant
    Bit rate : 256 Kbps
    Channel(s) : 2 channels
    Sampling rate : 44.1 KHz
    Compression mode : Lossy
    Stream size : 41.3 MiB (3%)
    Alignment : Aligned on interleaves
    Interleave, duration : 31 ms (0.94 video frame)
    Writing library : LAME



    Nazwa pliku: YellowBrickRoad.2010.DVDSCR.XviD-SiC.avi
    Data wygenerowania HashCode: 2011-06-13 21:12:25
    Rozmiar Pliku: 1,28 GB
    CRC32: 9D3FFAA5
    Rozmiar segmentu: 10,00 MB
    Liczba segmentów: 131
    Liczba mirrorów: 10
    Hasło: www.ufs.pl

    Masz problem z programem MoorHunt? Zajrzyj do działu Poradniki & FAQ tego programu.
    Zalecamy pobieranie za pomocą MailShare







    Przepraszamy, ale nie możesz zobaczyć tego tematu. Musisz sie Zarejestrować
    albo Zalogować

    Upload wykonany w MH 0.6.7.2

  2.    Sponsored Links




  3. #2
    Retired Awatar Freddy
     Informacje : 
    Dołączył
    Nov 2007
    Skąd
    Zasiedmiogórogrodzie
    Posty
    3,804
     Statystyki uploadów : 
    Filmy
    179
    Gry
    159
    Programy
    5
    Seriale
    143
    Muzyka
    26
    Porno
    52
    Inne
    4
    Małe upy
    3
     Łączny upload : 
    P2M UP
    1538.4 GB
     Zapostowane konta : 
    Total CA
    9305
     Podziękowania : 
    Podziękował: 243
    Doceniono: 546 razy w 239 postach
    Freddy jest nieaktywny

    Domyślnie

    niezatwierdzone
    Ostatnio edytowane przez Freddy ; 14-06-2011 o 19:43



    ----


    ----


    100% moich uploadów spakowanych w rarze zawiera dane naprawcze.
    ----

  4. #3
    Full Member
     Informacje : 
    Dołączył
    Mar 2009
    Posty
    586
     Podziękowania : 
    Podziękował: 581
    Doceniono: 0 razy w 0 postach
    barcaa4 jest nieaktywny

    Domyślnie

    gdzie moge znalesc napisy do tego filmu?


    Pytania o cracki, seriale bądź napisy 10pkt / / Stachu
    Ostatnio edytowane przez Stachu ; 07-07-2011 o 11:15

Informacje o wątku

Użytkownicy przeglądający ten wątek

Aktualnie 1 użytkownik(ów) przegląda ten wątek. (0 zarejestrowany(ch) oraz 1 gości)

Podobne wątki

  1. Red [2010][DVDScr][ENG]
    Przez PoziomeQ w dziale HQ (High Quality - Wysoka Jakość)
    Odpowiedzi: 3
    Ostatni post / autor: 24-10-2010, 13:27
  2. Red [2010][DVDScr][ENG]
    Przez Kimarco w dziale HQ (High Quality - Wysoka Jakość)
    Odpowiedzi: 7
    Ostatni post / autor: 21-10-2010, 15:44

Uprawnienia umieszczania postów

  • Nie możesz zakładać nowych tematów
  • Nie możesz pisać wiadomości
  • Nie możesz dodawać załączników
  • Nie możesz edytować swoich postów
  •