Aktualizacje seriali
 



Ogłoszenia
UFS - dotacje
Dotacje SMS
Jak korzystać z forumowej szukajki



Pokaż wyniki od 1 do 2 z 2

Wątek: Insidious [2010][R5][ENG]

  1. #1
    Szynka jest tylko jedna
     Informacje : 
    Dołączył
    Jun 2009
    Posty
    860
     Statystyki uploadów : 
    Filmy
    302
    Gry
    43
    Programy
    2
    Seriale
    45
    Muzyka
    1
    Porno
    15
    Inne
    2
    Małe upy
    13
     Łączny upload : 
    P2M UP
    1023.95 GB
     Zapostowane konta : 
    Total CA
    35
     Podziękowania : 
    Podziękował: 38
    Doceniono: 634 razy w 164 postach
    Szynek jest nieaktywny

    mh Insidious [2010][R5][ENG]

    Insidious



    Produkcja: USA
    Gatunek: Horror | Fantasy
    Data Premiery: 2010-09-14 (świat)
    Reżyseria: James Wan
    Scenariusz: Leigh Whannell
    Czas trwania: 97 minut
    Dystrybucja:
    Ocena: 6.3



    Josh (Patrick Wilson) i Renai (Rose Byrne) przenoszą się ze swoimi dziećmi do nowego domu, lecz nie zdążają nawet rozpakować rzeczy, jak zaczynają się dziać niesamowite wydarzenia. Niewytłumaczalnie przesuwają się przedmioty, rozlegają się dziwne dźwięki… Lecz w prawdziwą zgrozę wpadają rodzice, kiedy ich dziesięcioletni syn Dalton (Ty Simpkins) wpada w śpiączkę. Wszystkie starania lekarzy w szpitalu, by pomóc chłopcu są nieskuteczne... (tompawel)



    Josh - Patrick Wilson
    Renai - Rose Byrne
    Dalton - Ty Simpkins
    Elise Reiner - Lin Shaye
    Dr Trimble - Jeannette Sousa
    Terri - Chelsea Tavares









    Video
    ID : 0
    Format : MPEG-4 Visual
    Format profile : Advanced Simple@L5
    Format settings, BVOP : 2
    Format settings, QPel : No
    Format settings, GMC : No warppoints
    Format settings, Matrix : Default (MPEG)
    Muxing mode : Packed bitstream
    Codec ID : XVID
    Codec ID/Hint : XviD
    Duration : 1h 38mn
    Bit rate : 1 861 Kbps
    Width : 720 pixels
    Height : 304 pixels
    Display aspect ratio : 2.35:1
    Frame rate : 25.000 fps
    Color space : YUV
    Chroma subsampling : 4:2:0
    Bit depth : 8 bits
    Scan type : Progressive
    Compression mode : Lossy
    Bits/(Pixel*Frame) : 0.340
    Stream size : 1.27 GiB (93%)
    Writing library : XviD 61

    Audio
    ID : 1
    Format : MPEG Audio
    Format version : Version 1
    Format profile : Layer 3
    Mode : Joint stereo
    Mode extension : MS Stereo
    Codec ID : 55
    Codec ID/Hint : MP3
    Duration : 1h 38mn
    Bit rate mode : Constant
    Bit rate : 128 Kbps
    Channel(s) : 2 channels
    Sampling rate : 44.1 KHz
    Compression mode : Lossy
    Stream size : 89.8 MiB (6%)
    Alignment : Split accross interleaves
    Interleave, duration : 40 ms (1.00 video frame)
    Interleave, preload duration : 500 ms
    Writing library : LAME3.98r
    Encoding settings : -m j -V 4 -q 2 -lowpass 17 -b 128



    Nazwa pliku: Insidious 2011 R5.avi
    Rozmiar Pliku: 1,37 GB
    Rozmiar segmentu: 7,00 MB
    Liczba segmentów: 201
    Liczba mirrorów: 19
    Hasło: www.ufs.pl

    Masz problem z programem MoorHunt? Zajrzyj do działu Poradniki & FAQ tego programu.
    Zalecamy pobieranie za pomocą MailShare







    Przepraszamy, ale nie możesz zobaczyć tego tematu. Musisz sie Zarejestrować
    albo Zalogować

    Upload wykonany w MH 0.6.7.2

  2. Liczba osób które doceniły autora: 1


  3.    Sponsored Links




  4. #2
    Retired Awatar depciak
     Informacje : 
    Dołączył
    Sep 2007
    Skąd
    Rzeszów
    Posty
    3,836
     Statystyki uploadów : 
    Filmy
    94
    Gry
    69
    Seriale
    51
    Muzyka
    4
    Porno
    6
    Małe upy
    2
     Łączny upload : 
    P2M UP
    1519.25 GB
     Zapostowane konta : 
    Total CA
    21035
     Podziękowania : 
    Podziękował: 3
    Doceniono: 154 razy w 67 postach
    depciak jest nieaktywny

    Domyślnie

    niezatwierdzone
    Ostatnio edytowane przez depciak ; 03-06-2011 o 15:17
    1234567890

Informacje o wątku

Użytkownicy przeglądający ten wątek

Aktualnie 1 użytkownik(ów) przegląda ten wątek. (0 zarejestrowany(ch) oraz 1 gości)

Podobne wątki

  1. Insidious [2010][R5][AC3][ENG]
    Przez adam12 w dziale HQ (High Quality - Wysoka Jakość)
    Odpowiedzi: 1
    Ostatni post / autor: 25-04-2011, 11:57

Uprawnienia umieszczania postów

  • Nie możesz zakładać nowych tematów
  • Nie możesz pisać wiadomości
  • Nie możesz dodawać załączników
  • Nie możesz edytować swoich postów
  •