Aktualizacje seriali
 



Ogłoszenia
UFS - dotacje
Dotacje SMS
Jak korzystać z forumowej szukajki



Pokaż wyniki od 1 do 2 z 2

Wątek: Insidious [2010][R5][AC3][ENG]

  1. #1
    SuperVIP Awatar adam12
     Informacje : 
    Dołączył
    Jul 2007
    Posty
    1,586
     Statystyki uploadów : 
    Filmy
    550
    Gry
    1
    Seriale
    4
    Muzyka
    86
    Inne
    4
     Łączny upload : 
    P2M UP
    1797.55 GB
     Zapostowane konta : 
    Total CA
    2395
     Podziękowania : 
    Podziękował: 116
    Doceniono: 371 razy w 195 postach
    adam12 jest nieaktywny

    mh Insidious [2010][R5][AC3][ENG]

    Insidious




    Produkcja: USA
    Gatunek: Horror | Fantasy
    Data Premiery: 2010-09-14 (świat)
    Reżyseria: James Wan
    Scenariusz: Leigh Whannell
    Czas trwania: 98 min.




    Josh (Patrick Wilson) i Renai (Rose Byrne) przenoszą się ze swoimi dziećmi do nowego domu, lecz nie zdążają nawet rozpakować rzeczy, jak zaczynają się dziać niesamowite wydarzenia. Niewytłumaczalnie przesuwają się przedmioty, rozlegają się dziwne dźwięki… Lecz w prawdziwą zgrozę wpadają rodzice, kiedy ich dziesięcioletni syn Dalton (Ty Simpkins) wpada w śpiączkę. Wszystkie starania lekarzy w szpitalu, by pomóc chłopcu są nieskuteczne... (tompawel)



    Josh - Patrick Wilson
    Renai - Rose Byrne
    Dalton - Ty Simpkins
    Elise Reiner - Lin Shaye









    General
    Complete name : Insidious.2011.R5.DVDRip.Cleaned.AC3.XVID.HQ.Hive-CM8.avi
    Format : AVI
    Format/Info : Audio Video Interleave
    File size : 1.51 GiB
    Duration : 1h 38mn
    Overall bit rate : 2 209 Kbps
    Writing application : Nandub v1.0rc2
    Writing library : Nandub build 1853/release

    Video
    ID : 0
    Format : MPEG-4 Visual
    Format profile : Advanced Simple@L5
    Format settings, BVOP : Yes
    Format settings, QPel : Yes
    Format settings, GMC : No warppoints
    Format settings, Matrix : Default (H.263)
    Muxing mode : Packed bitstream
    Codec ID : XVID
    Codec ID/Hint : XviD
    Duration : 1h 38mn
    Bit rate : 1 943 Kbps
    Width : 720 pixels
    Height : 304 pixels
    Display aspect ratio : 2.35:1
    Frame rate : 25.000 fps
    Color space : YUV
    Chroma subsampling : 4:2:0
    Bit depth : 8 bits
    Scan type : Progressive
    Bits/(Pixel*Frame) : 0.355
    Stream size : 1.33 GiB (88)
    Writing library : XviD 1.2.1 (UTC 2008-12-04)

    Audio
    ID : 1
    Format : AC-3
    Format/Info : Audio Coding 3
    Mode extension : CM (complete main)
    Codec ID : 2000
    Duration : 1h 38mn
    Bit rate mode : Constant
    Bit rate : 256 Kbps
    Channel(s) : 2 channels
    Channel positions : Front: L R
    Sampling rate : 48.0 KHz
    Bit depth : 16 bits
    Stream size : 180 MiB (12)
    Alignment : Split accross interleaves
    Interleave, duration : 40 ms (1.00 video frame)
    Interleave, preload duration : 500 ms




    Nazwa pliku: Insidious.2011.R5.Cleaned.AC3.XVID.HQ.Hive-CM8.adam12 _for_ufs_pl.part1 - 2.rar
    Rozmiar Pliku: 900.00 MB / 829.30 MB
    Rozmiar segmentu: 7.00 MB
    Liczba segmentów: 129 / 119
    Liczba mirrorów: 9 / 9

    Hasło: www.ufs.pl

    Masz problem z programem MoorHunt? Zajrzyj do działu Poradniki & FAQ tego programu.
    Zalecamy pobieranie za pomocą MailShare







    Przepraszamy, ale nie możesz zobaczyć tego tematu. Musisz sie Zarejestrować
    albo Zalogować

    Upload zawiera 10% danych naprawczych!
    Jak korzystać z danych naprawczych? Tutaj znajdziesz poradnik!
    Upload wykonany w MH 0.6.7.2

  2.    Sponsored Links




  3. #2
    Retired Awatar depciak
     Informacje : 
    Dołączył
    Sep 2007
    Skąd
    Rzeszów
    Posty
    3,836
     Statystyki uploadów : 
    Filmy
    94
    Gry
    69
    Seriale
    51
    Muzyka
    4
    Porno
    6
    Małe upy
    2
     Łączny upload : 
    P2M UP
    1519.25 GB
     Zapostowane konta : 
    Total CA
    21035
     Podziękowania : 
    Podziękował: 3
    Doceniono: 154 razy w 67 postach
    depciak jest nieaktywny

    Domyślnie

    niezatwierdzone
    Ostatnio edytowane przez depciak ; 25-04-2011 o 12:07
    1234567890

Informacje o wątku

Użytkownicy przeglądający ten wątek

Aktualnie 1 użytkownik(ów) przegląda ten wątek. (0 zarejestrowany(ch) oraz 1 gości)

Podobne wątki

  1. Insidious [2010][R5][ENG]
    Przez Szynek w dziale HQ (High Quality - Wysoka Jakość)
    Odpowiedzi: 1
    Ostatni post / autor: 03-06-2011, 15:08

Uprawnienia umieszczania postów

  • Nie możesz zakładać nowych tematów
  • Nie możesz pisać wiadomości
  • Nie możesz dodawać załączników
  • Nie możesz edytować swoich postów
  •