Aktualizacje seriali
 



Ogłoszenia
UFS - dotacje
Dotacje SMS
Jak korzystać z forumowej szukajki



Pokaż wyniki od 1 do 3 z 3

Wątek: Battle: Los Angeles [2011][R5][ENG][Napisy PL]

  1. #1
    SuperVIP Awatar adam12
     Informacje : 
    Dołączył
    Jul 2007
    Posty
    1,586
     Statystyki uploadów : 
    Filmy
    550
    Gry
    1
    Seriale
    4
    Muzyka
    86
    Inne
    4
     Łączny upload : 
    P2M UP
    1797.55 GB
     Zapostowane konta : 
    Total CA
    2395
     Podziękowania : 
    Podziękował: 116
    Doceniono: 371 razy w 195 postach
    adam12 jest nieaktywny

    mh Battle: Los Angeles [2011][R5][ENG][Napisy PL]

    Battle: Los Angeles




    Produkcja: USA
    Gatunek: Akcja | Sci-Fi
    Data Premiery: 2011-03-18 (kino), 2011-03-11 (świat)
    Reżyseria: Jonathan Liebesman
    Scenariusz: Scott Silver, Christopher Bertolini
    Czas trwania:
    Dystrybucja: UIP - United International Pictures
    Ocena: 6.4



    Ziemię próbuje zdobyć pozaziemska cywilizacja, niszcząc wszystko co żywe na swojej drodze. Na całym świecie zaczyna się powszechna batalia ludzkości o przeżycie. Oddziałowi morskich piechurów polecono za wszelką cenę oswobodzić miasto Los Angeles, oblężone przez tajemnicze i śmiercionośne stworzenia... (tompawel)



    Sierż. Michael Nantz - Aaron Eckhart
    St. sierż. szt. Elena Santos - Michelle Rodriguez
    Michele - Bridget Moynahan
    Joe Rincon - Michael Pena
    Kirsten - Joey King
    Kpr. Peter Kerns - Jim Parrack
    Kpr. Grayston - Lucas Till
    Lockett - Cory Hardrict









    Video
    ID : 0
    Format : MPEG-4 Visual
    Format profile : Advanced Simple@L5
    Format settings, BVOP : 2
    Format settings, QPel : No
    Format settings, GMC : No warppoints
    Format settings, Matrix : Default (MPEG)
    Codec ID : XVID
    Codec ID/Hint : XviD
    Duration : 1h 51mn
    Bit rate : 1 592 Kbps
    Width : 720 pixels
    Height : 304 pixels
    Display aspect ratio : 2.35:1
    Frame rate : 25.000 fps
    Color space : YUV
    Chroma subsampling : 4:2:0
    Bit depth : 8 bits
    Scan type : Progressive
    Compression mode : Lossy
    Bits/(Pixel*Frame) : 0.291
    Stream size : 1.24 GiB (92%)
    Writing library : XviD 1.2.1 (UTC 2008-12-04)

    Audio
    ID : 1
    Format : MPEG Audio
    Format version : Version 1
    Format profile : Layer 3
    Codec ID : 55
    Codec ID/Hint : MP3
    Duration : 1h 51mn
    Bit rate mode : Constant
    Bit rate : 128 Kbps
    Channel(s) : 2 channels
    Sampling rate : 44.1 KHz
    Compression mode : Lossy
    Stream size : 102 MiB (7%)
    Alignment : Aligned on interleaves
    Interleave, duration : 40 ms (1.00 video frame)




    Nazwa pliku: Battle.Los.Angeles.2011.SubPL.R5.XviD.adam12 _for_ufs_pl.rar
    Rozmiar Pliku: 1,49 GB
    Rozmiar segmentu: 7,00 MB
    Liczba segmentów: 219
    Liczba mirrorów: 9

    Hasło: www.ufs.pl

    Masz problem z programem MoorHunt? Zajrzyj do działu Poradniki & FAQ tego programu.
    Zalecamy pobieranie za pomocą MailShare







    Przepraszamy, ale nie możesz zobaczyć tego tematu. Musisz sie Zarejestrować
    albo Zalogować

    Upload zawiera 10% danych naprawczych!
    Jak korzystać z danych naprawczych? Tutaj znajdziesz poradnik!
    Upload wykonany w MH 0.6.7.2

  2.    Sponsored Links




  3. #2
    Retired Awatar Freddy
     Informacje : 
    Dołączył
    Nov 2007
    Skąd
    Zasiedmiogórogrodzie
    Posty
    3,804
     Statystyki uploadów : 
    Filmy
    179
    Gry
    159
    Programy
    5
    Seriale
    143
    Muzyka
    26
    Porno
    52
    Inne
    4
    Małe upy
    3
     Łączny upload : 
    P2M UP
    1538.4 GB
     Zapostowane konta : 
    Total CA
    9305
     Podziękowania : 
    Podziękował: 243
    Doceniono: 546 razy w 239 postach
    Freddy jest nieaktywny

    Domyślnie

    niezatwierdzone


    -----

    Nie idzie MH? Pobierać YGOOWEM!
    Ostatnio edytowane przez Freddy ; 10-04-2011 o 00:13



    ----


    ----


    100% moich uploadów spakowanych w rarze zawiera dane naprawcze.
    ----

  4. #3
    Uwaga k0 bieta Awatar Silka
     Informacje : 
    Dołączył
    Mar 2008
    Skąd
    śląsk
    Posty
    2,253
     Statystyki uploadów : 
    Filmy
    51
    Gry
    9
    Programy
    7
    Seriale
    156
    Muzyka
    139
    Inne
    1
    Małe upy
    8
     Łączny upload : 
    P2M UP
    271.3 GB
     Zapostowane konta : 
    Total CA
    495
     Podziękowania : 
    Podziękował: 14
    Doceniono: 184 razy w 68 postach
    Silka jest nieaktywny

    Domyślnie

    Upload Sprawny // Sprawdzono na Zgłoszenie




    "...Jeśli któregoś dnia, ktoś zarzuci Ci, że Twoja praca nie jest profesjonalna, powiedz sobie, że Arkę Noego zbudowali amatorzy a Titanic'a profesjonaliści..."



    Trial -> 31.01.10 Uploader -> 14.09.10 Elita -> 6.11.10 Moderator -> 11.06.12 Retired -> 11.11.12 Elita ->21.04.2013 Retired

    Mail Resender



Informacje o wątku

Użytkownicy przeglądający ten wątek

Aktualnie 1 użytkownik(ów) przegląda ten wątek. (0 zarejestrowany(ch) oraz 1 gości)

Podobne wątki

  1. 0.7GB Battle: Los Angeles [2011][R5][ENG]
    Przez Pumbek w dziale HQ (High Quality - Wysoka Jakość)
    Odpowiedzi: 1
    Ostatni post / autor: 08-04-2011, 13:54

Uprawnienia umieszczania postów

  • Nie możesz zakładać nowych tematów
  • Nie możesz pisać wiadomości
  • Nie możesz dodawać załączników
  • Nie możesz edytować swoich postów
  •