Aktualizacje seriali
 



Ogłoszenia
UFS - dotacje
Dotacje SMS
Jak korzystać z forumowej szukajki



Pokaż wyniki od 1 do 3 z 3

Wątek: Once Upon a Time in America [1984][DVDRip][ENG][AC3]

  1. #1
    Retired Awatar Look
     Informacje : 
    Dołączył
    Jan 2008
    Posty
    4,307
     Statystyki uploadów : 
    Filmy
    595
    Gry
    59
    Programy
    1
    Seriale
    72
    Muzyka
    13
    Porno
    1
    Inne
    4
     Łączny upload : 
    P2M UP
    2456.2 GB
     Zapostowane konta : 
    Total CA
    8670
     Podziękowania : 
    Podziękował: 972
    Doceniono: 20,197 razy w 324 postach
    Look jest nieaktywny

    mh Once Upon a Time in America [1984][DVDRip][ENG][AC3]

    Once Upon a Time in America



    Produkcja: USA, Włochy
    Gatunek: Dramat, Gangsterski
    Data Premiery: 1984-12-31 (Polska), 1984-02-17 (Świat)
    Reżyseria: Sergio Leone
    Scenariusz: Leonardo Benvenuti, Franco Arcalli
    Zdjęcia: Tonino Delli Colli
    Muzyka: Ennio Morricone
    Czas trwania: 229 Minut



    Słynna gangsterska saga. Akcja opowieści rozpoczyna się w 1922 roku, kiedy Noodles (Robert De Niro) poznaje Maxa (James Woods). Chłopcy zaczynają się przyjaźnić. Po kilku latach kierują własnym gangiem.



    Robert De Niro - David "Noodles" Aaronson
    James Woods - Maximilian "Max" Bercovicz
    Elizabeth McGovern - Deborah Gelly
    Treat Williams - James Conway O'Donnell
    Tuesday Weld - Carol
    Burt Young - Joe
    Joe Pesci - Frankie Manoldi
    Danny Aiello - Vincent Aiello, szef policji
    William Forsythe - Philip "Cockeye" Stein
    James Hayden - Patrick "Patsy" Goldberg



    Format : AVI
    Format/Info : Audio Video Interleave
    Format profile : OpenDML
    File size : 1.40 GiB
    Duration : 1h 49mn
    Overall bit rate : 1 838 Kbps
    Writing application : AVI-Mux GUI 1.17.8.3, Feb 16 201019:42:50

    Video
    ID : 0
    Format : MPEG-4 Visual
    Format profile : Advanced Simple@L5
    Format settings, BVOP : Yes
    Format settings, QPel : No
    Format settings, GMC : No warppoints
    Format settings, Matrix : Default (H.263)
    Codec ID : XVID
    Codec ID/Hint : XviD
    Duration : 1h 49mn
    Bit rate : 1 385 Kbps
    Width : 624 pixels
    Height : 336 pixels
    Display aspect ratio : 1.857
    Frame rate : 23.976 fps
    Color space : YUV
    Chroma subsampling : 4:2:0
    Bit depth : 8 bits
    Scan type : Progressive
    Compression mode : Lossy
    Bits/(Pixel*Frame) : 0.275
    Stream size : 1.06 GiB (75%)
    Writing library : XviD 1.2.1 (UTC 2008-12-04)

    Audio
    ID : 1
    Format : AC-3
    Format/Info : Audio Coding 3
    Mode extension : CM (complete main)
    Codec ID : 2000
    Duration : 1h 49mn
    Bit rate mode : Constant
    Bit rate : 448 Kbps
    Channel(s) : 6 channels
    Channel positions : Front: L C R, Side: L R, LFE
    Sampling rate : 48.0 KHz
    Bit depth : 16 bits
    Compression mode : Lossy
    Stream size : 350 MiB (24%)
    Alignment : Aligned on interleaves
    Interleave, duration : 64 ms (1.53 video frames)
    Interleave, preload duration : 192 ms
    Title : VTS_01_1 T80 3_2ch 448Kbps DELAY 0ms







    Nazwa pliku: Once Upon a Time in America Disc 1(1984)-DVDRIp Xvid-THC.avi
    Ilość segmentów: 2*205
    Rozmiar segmentu: 7mb
    Wielkość uploadu: 2,8gb
    Ilość mirrorów: 9
    Hasło do scalenia: www.ufs.pl







    Przepraszamy, ale nie możesz zobaczyć tego tematu. Musisz sie Zarejestrować
    albo Zalogować



    MEMBER > FULL MEMBER > UFS TRIAL > KREATOR > FULL MEMBER > UFS TRIAL > UPLOADER > SUPER UPLOADER > UFS ELITE>MODERATOR>


    +


  2.    Sponsored Links




  3. #2
    Uwaga k0 bieta Awatar Silka
     Informacje : 
    Dołączył
    Mar 2008
    Skąd
    śląsk
    Posty
    2,253
     Statystyki uploadów : 
    Filmy
    51
    Gry
    9
    Programy
    7
    Seriale
    156
    Muzyka
    139
    Inne
    1
    Małe upy
    8
     Łączny upload : 
    P2M UP
    271.3 GB
     Zapostowane konta : 
    Total CA
    495
     Podziękowania : 
    Podziękował: 14
    Doceniono: 184 razy w 68 postach
    Silka jest nieaktywny

    Domyślnie

    niezatwierdzone
    Ostatnio edytowane przez Silka ; 01-04-2011 o 21:43




    "...Jeśli któregoś dnia, ktoś zarzuci Ci, że Twoja praca nie jest profesjonalna, powiedz sobie, że Arkę Noego zbudowali amatorzy a Titanic'a profesjonaliści..."



    Trial -> 31.01.10 Uploader -> 14.09.10 Elita -> 6.11.10 Moderator -> 11.06.12 Retired -> 11.11.12 Elita ->21.04.2013 Retired

    Mail Resender



  4. #3
    Full Member Awatar VieViuR
     Informacje : 
    Dołączył
    Sep 2008
    Skąd
    Bydgoszcz
    Posty
    370
     Podziękowania : 
    Podziękował: 353
    Thanked 1 Time in 1 Post
    VieViuR jest nieaktywny

    Domyślnie

    *****... czemu jak pobieram film z 1984 napiprojekt nie znajduje mi napisów, jak szukam na stronach są napisy do innej wersji... ***** czemu?
    macie napisy?


    Pytania o cracki, seriale bądź napisy / / Stachu
    Ostatnio edytowane przez Stachu ; 03-12-2011 o 12:10

Informacje o wątku

Użytkownicy przeglądający ten wątek

Aktualnie 1 użytkownik(ów) przegląda ten wątek. (0 zarejestrowany(ch) oraz 1 gości)

Podobne wątki

  1. Akademia Policyjna 1-7 [1984-1984] [DVDRip]
    Przez zguto w dziale HQ (High Quality - Wysoka Jakość)
    Odpowiedzi: 2
    Ostatni post / autor: 20-07-2014, 16:28

Uprawnienia umieszczania postów

  • Nie możesz zakładać nowych tematów
  • Nie możesz pisać wiadomości
  • Nie możesz dodawać załączników
  • Nie możesz edytować swoich postów
  •