Aktualizacje seriali
 



Ogłoszenia
UFS - dotacje
Dotacje SMS
Jak korzystać z forumowej szukajki



Pokaż wyniki od 1 do 2 z 2

Wątek: The Unforgiving [2010][DVDRip][AC3][ENG]

  1. #1
    Retired Awatar Look
     Informacje : 
    Dołączył
    Jan 2008
    Posty
    4,304
     Statystyki uploadów : 
    Filmy
    595
    Gry
    59
    Programy
    1
    Seriale
    72
    Muzyka
    13
    Porno
    1
    Inne
    4
     Łączny upload : 
    P2M UP
    2456.2 GB
     Zapostowane konta : 
    Total CA
    8670
     Podziękowania : 
    Podziękował: 969
    Doceniono: 20,196 razy w 324 postach
    Look jest nieaktywny

    mh The Unforgiving [2010][DVDRip][AC3][ENG]

    The Unforgiving



    Produkcja: RPA
    Gatunek: Horror
    Data Premiery: (Polska), 2010-08-20 (Świat)
    Reżyseria: Alastair Orr
    Scenariusz: Alastair Orr
    Zdjęcia: Craig Maarschalk
    Muzyka: Wikus du Toit
    Czas trwania: 75 Minut



    Rex Dobson i Alice Edmonds, czekając na pomoc drogową na opuszczonej autostradzie zostają uprowadzeni przez zamaskowanego szaleńca. Po okrutnych torturach udaje im się jednak zbiec. Śledztwo w sprawie prowadzi detektyw James Hirsch, który zamyka oboje w osobnych pokojach i prowadzi przesłuchanie, które da zaskakujące efekty.



    Ryan Macquet - Rex Dobson
    Craig Hawks - Vincent Davies
    Claire Opperman - Alice Edmonds
    Michael Thompson - Detektyw James Hirsch



    Format : AVI
    Format/Info : Audio Video Interleave
    File size : 948 MiB
    Duration : 1h 1mn
    Overall bit rate : 2 159 Kbps
    Movie name : THEUNFORGIVING.Title2.DVDRip
    Writing application : Lavf52.78.4
    Writing library : VirtualDub build 32842/release
    Original source form/Name : THEUNFORGIVING

    Video
    ID : 0
    Format : MPEG-4 Visual
    Format profile : Advanced Simple@L5
    Format settings, BVOP : Yes
    Format settings, QPel : No
    Format settings, GMC : No warppoints
    Format settings, Matrix : Default (H.263)
    Muxing mode : Packed bitstream
    Codec ID : XVID
    Codec ID/Hint : XviD
    Duration : 1h 1mn
    Bit rate : 1 926 Kbps
    Width : 720 pixels
    Height : 406 pixels
    Display aspect ratio : 16:9
    Frame rate : 25.000 fps
    Color space : YUV
    Chroma subsampling : 4:2:0
    Bit depth : 8 bits
    Scan type : Progressive
    Bits/(Pixel*Frame) : 0.263
    Stream size : 845 MiB (89%)
    Writing library : XviD 1.2.1 (UTC 2008-12-04)

    Audio
    ID : 1
    Format : AC-3
    Format/Info : Audio Coding 3
    Mode extension : CM (complete main)
    Codec ID : 2000
    Duration : 1h 1mn
    Bit rate mode : Constant
    Bit rate : 224 Kbps
    Channel(s) : 2 channels
    Channel positions : Front: L R
    Sampling rate : 48.0 KHz
    Bit depth : 16 bits
    Stream size : 98.4 MiB (10%)
    Alignment : Split accross interleaves
    Interleave, duration : 40 ms (1.00 video frame)
    Interleave, preload duration : 500 ms







    Nazwa pliku: The.Unforgiving.2010.DVDRip.XviD-StoNerS.avi
    Ilość segmentów: 136
    Rozmiar segmentu: 7mb
    Wielkość uploadu: 950mb
    Ilość mirrorów: 9
    Hasło do scalenia: www.ufs.pl







    Przepraszamy, ale nie możesz zobaczyć tego tematu. Musisz sie Zarejestrować
    albo Zalogować



    MEMBER > FULL MEMBER > UFS TRIAL > KREATOR > FULL MEMBER > UFS TRIAL > UPLOADER > SUPER UPLOADER > UFS ELITE>MODERATOR>


    +


  2.    Sponsored Links




  3. #2
    Retired Awatar nismo
     Informacje : 
    Dołączył
    May 2009
    Skąd
    ZCH
    Posty
    1,631
     Statystyki uploadów : 
    Filmy
    279
    Gry
    115
    Programy
    7
    Seriale
    3
    Muzyka
    6
    Inne
    1
    Małe upy
    5
     Łączny upload : 
    P2M UP
    589.35 GB
     Zapostowane konta : 
    Total CA
    350
     Podziękowania : 
    Podziękował: 11
    Doceniono: 211 razy w 101 postach
    nismo jest nieaktywny

    Domyślnie

    niezatwierdzone

Informacje o wątku

Użytkownicy przeglądający ten wątek

Aktualnie 1 użytkownik(ów) przegląda ten wątek. (0 zarejestrowany(ch) oraz 1 gości)

Uprawnienia umieszczania postów

  • Nie możesz zakładać nowych tematów
  • Nie możesz pisać wiadomości
  • Nie możesz dodawać załączników
  • Nie możesz edytować swoich postów
  •