Aktualizacje seriali
 



Ogłoszenia
UFS - dotacje
Dotacje SMS
Jak korzystać z forumowej szukajki



Pokaż wyniki od 1 do 2 z 2

Wątek: Minuteman A.k.a Universal Squadrons [2011][DVDRip][AC3][ENG]

  1. #1
    Retired Awatar Look
     Informacje : 
    Dołączył
    Jan 2008
    Posty
    4,310
     Statystyki uploadów : 
    Filmy
    595
    Gry
    59
    Programy
    1
    Seriale
    72
    Muzyka
    13
    Porno
    1
    Inne
    4
     Łączny upload : 
    P2M UP
    2456.2 GB
     Zapostowane konta : 
    Total CA
    8670
     Podziękowania : 
    Podziękował: 975
    Doceniono: 20,200 razy w 324 postach
    Look jest nieaktywny

    mh Minuteman A.k.a Universal Squadrons [2011][DVDRip][AC3][ENG]

    Minuteman A.k.a Universal Squadrons



    Produkcja:usa
    Gatunek:wojenny
    Data Premiery:2011
    Reżyseria:Mark Millhone
    Scenariusz:Mark Millhone
    Muzyka:
    Zdjęcia:
    Czas trwania:93



    Kapitan Lance Deakin wraca do domu po wojnie w Iraku. Po krótkim czasie okazuje się jednak, że była to tylko chwilowa rozłąka z wojną...



    Barry Corbin,
    Riley Smith,
    Willa Ford,
    Christian Kane,
    Keith Stone







    Complete name : Universal.Squadrons.2010.DVDrip.XviD-NoGRP.avi
    Format : AVI
    Format/Info : Audio Video Interleave
    File size : 726 MiB
    Duration : 1h 19mn
    Overall bit rate : 1 280 Kbps
    Movie name : UNIVERSAL_SQUADRONS.Title1.DVDRip
    Writing application : Lavf52.78.4
    Original source form/Name : UNIVERSAL_SQUADRONS

    Video
    ID : 0
    Format : AVC
    Format/Info : Advanced Video Codec
    Codec ID : H264
    Duration : 1h 19mn
    Bit rate : 1 077 Kbps
    Width : 720 pixels
    Height : 406 pixels
    Display aspect ratio : 16:9
    Frame rate : 25.000 fps
    Bits/(Pixel*Frame) : 0.147
    Stream size : 611 MiB (84%)

    Audio
    ID : 1
    Format : AC-3
    Format/Info : Audio Coding 3
    Format_Settings_ModeExtension : CM (complete main)
    Codec ID : 2000
    Duration : 1h 19mn
    Bit rate mode : Constant
    Bit rate : 192 Kbps
    Channel(s) : 2 channels
    Channel positions : Front: L R
    Sampling rate : 48.0 KHz
    Stream size : 109 MiB (15%)
    Alignment : Aligned on interleaves
    Interleave, duration : 32 ms (0.80 video frame)
    Interleave, preload duration : 32 ms



    Nazwa pliku:Universal.Squadrons.2010.DVDrip.XviD-NoGRP.avi
    Ilość plików na koncie:104
    Rozmiar segmentu:tmb
    Wielkość uploadu:725,56mb
    Ilość mirrorów:9
    Hasło do scalenia: www.ufs.pl

    Masz problem z programem Moorhunt? Zajrzyj do działu Poradniki & FAQ tego programu.
    Zalecamy pobieranie za pomocą MailShare







    Przepraszamy, ale nie możesz zobaczyć tego tematu. Musisz sie Zarejestrować
    albo Zalogować



    MEMBER > FULL MEMBER > UFS TRIAL > KREATOR > FULL MEMBER > UFS TRIAL > UPLOADER > SUPER UPLOADER > UFS ELITE>MODERATOR>


    +


  2.    Sponsored Links




  3. #2
    Gdzie są pieniądze za las?! Awatar Stachu
     Informacje : 
    Dołączył
    Oct 2007
    Skąd
    Köln
    Posty
    9,239
     Statystyki uploadów : 
    Filmy
    892
    Gry
    597
    Programy
    14
    Seriale
    297
    Muzyka
    87
    Porno
    69
    Inne
    66
    Małe upy
    12
     Łączny upload : 
    P2M UP
    8184.15 GB
     Zapostowane konta : 
    Total CA
    14861
     Podziękowania : 
    Podziękował: 248
    Doceniono: 36,199 razy w 1,147 postach
     Total HTTP Upload : 
    HTTP UP: 0.7 GB
    Stachu jest nieaktywny

    Domyślnie

    niezatwierdzone
    Ostatnio edytowane przez Stachu ; 01-04-2011 o 11:23
    Member -> Full Member -> UFS Trial -> UFS Uploader -> UFS Elite -> Moderator -> UFS Elite -> Super Vip -> Elite Kreator -> Elite Uploader -> Super Vip -> Elite Uploader -> Super Vip
    Intel Core i5 2500 3.3GHz
    SilentiumPC
    Asus H61
    Kingston HyperX 16GB DDR3 1600MHz
    Seagate 500GB
    Toshiba 320GB
    Seagate Desktop HDD 2TB
    GoodRam SSD 120GB
    Gigabyte GeForce 1060 6GB XTreme OC
    Nagrywarka Asus
    Thermaltake Modular SE 530W
    Zalman 3 Plus White



Informacje o wątku

Użytkownicy przeglądający ten wątek

Aktualnie 1 użytkownik(ów) przegląda ten wątek. (0 zarejestrowany(ch) oraz 1 gości)

Podobne wątki

  1. 0.7GB Universal Soldier Regeneration[2009][DVDRip][NAP-PL]
    Przez nismo w dziale HQ (High Quality - Wysoka Jakość)
    Odpowiedzi: 1
    Ostatni post / autor: 08-01-2010, 20:33

Uprawnienia umieszczania postów

  • Nie możesz zakładać nowych tematów
  • Nie możesz pisać wiadomości
  • Nie możesz dodawać załączników
  • Nie możesz edytować swoich postów
  •