Aktualizacje seriali
 



Ogłoszenia
UFS - dotacje
Dotacje SMS
Jak korzystać z forumowej szukajki



Pokaż wyniki od 1 do 2 z 2

Wątek: The Dragon Pearl [2011][DVDScr][ENG]

  1. #1
    Retired Awatar Look
     Informacje : 
    Dołączył
    Jan 2008
    Posty
    4,311
     Statystyki uploadów : 
    Filmy
    595
    Gry
    59
    Programy
    1
    Seriale
    72
    Muzyka
    13
    Porno
    1
    Inne
    4
     Łączny upload : 
    P2M UP
    2456.2 GB
     Zapostowane konta : 
    Total CA
    8670
     Podziękowania : 
    Podziękował: 976
    Doceniono: 20,202 razy w 324 postach
    Look jest nieaktywny

    mh The Dragon Pearl [2011][DVDScr][ENG]

    The Dragon Pearl



    Produkcja:Australia
    Gatunek:Fantazy
    Data Premiery:2011
    Reżyseria:Mario Andreacchio
    ScenariuszMario Andreacchio :
    Muzyka:
    Zdjęcia:
    Czas trwania:93min



    Film opowiada o nastolatkch Josh'u (Louis Corbett) i Ling (Li Lin Jin), którzy wraz z swoimi rodzicami przebywają na wykopaliskach archeologicznych w Chinach. Wkrótce znajdują mistycznego smoka głęboko w jaskini, który stracił swoją magiczną "perłe" .



    Sam Neill,
    Li Lin Jin,
    Louis Corbett







    Format : AVI
    Format/Info : Audio Video Interleave
    File size : 913 MiB
    Duration : 1h 29mn
    Overall bit rate : 1 427 Kbps
    Writing application : Nandub v1.0rc2
    Writing library : VirtualDub build 32839/release

    Video
    ID : 0
    Format : MPEG-4 Visual
    Format profile : Advanced Simple@L5
    Format settings, BVOP : Yes
    Format settings, QPel : No
    Format settings, GMC : No warppoints
    Format settings, Matrix : Custom
    Codec ID : XVID
    Codec ID/Hint : XviD
    Duration : 1h 29mn
    Bit rate : 1 160 Kbps
    Width : 720 pixels
    Height : 352 pixels
    Display aspect ratio : 2.045
    Frame rate : 29.970 fps
    Color space : YUV
    Chroma subsampling : 4:2:0
    Bit depth : 8 bits
    Scan type : Progressive
    Bits/(Pixel*Frame) : 0.153
    Stream size : 742 MiB (81%)
    Writing library : XviD 1.2.1 (UTC 2008-12-04)

    Audio
    ID : 1
    Mode extension : CM (complete main)
    Codec ID : 2000
    Duration : 1h 29mn
    Bit rate mode : Constant
    Bit rate : 256 Kbps
    Channel(s) : 2 channels
    Channel positions : Front: L R
    Sampling rate : 48.0 KHz
    Bit depth : 16 bits
    Stream size : 164 MiB (18%)
    Alignment : Split accross interleaves
    Interleave, duration : 33 ms (1.00 video frame)
    Interleave, preload duration : 500 ms



    Nazwa pliku:The Dragon Pearl 2011 XViD DVDSCR DTRG.avi
    Ilość plików na koncie:131
    Rozmiar segmentu:7mb
    Wielkość uploadu:913mb
    Ilość mirrorów:9
    Hasło do scalenia: www.ufs.pl

    Masz problem z programem Moorhunt? Zajrzyj do działu Poradniki & FAQ tego programu.
    Zalecamy pobieranie za pomocą MailShare







    Przepraszamy, ale nie możesz zobaczyć tego tematu. Musisz sie Zarejestrować
    albo Zalogować

    Ostatnio edytowane przez Look ; 20-03-2011 o 20:04


    MEMBER > FULL MEMBER > UFS TRIAL > KREATOR > FULL MEMBER > UFS TRIAL > UPLOADER > SUPER UPLOADER > UFS ELITE>MODERATOR>


    +


  2.    Sponsored Links




  3. #2
    Uwaga k0 bieta Awatar Silka
     Informacje : 
    Dołączył
    Mar 2008
    Skąd
    śląsk
    Posty
    2,253
     Statystyki uploadów : 
    Filmy
    51
    Gry
    9
    Programy
    7
    Seriale
    156
    Muzyka
    139
    Inne
    1
    Małe upy
    8
     Łączny upload : 
    P2M UP
    271.3 GB
     Zapostowane konta : 
    Total CA
    495
     Podziękowania : 
    Podziękował: 14
    Doceniono: 184 razy w 68 postach
    Silka jest nieaktywny

    Domyślnie

    niezatwierdzone
    Ostatnio edytowane przez Silka ; 20-03-2011 o 20:13




    "...Jeśli któregoś dnia, ktoś zarzuci Ci, że Twoja praca nie jest profesjonalna, powiedz sobie, że Arkę Noego zbudowali amatorzy a Titanic'a profesjonaliści..."



    Trial -> 31.01.10 Uploader -> 14.09.10 Elita -> 6.11.10 Moderator -> 11.06.12 Retired -> 11.11.12 Elita ->21.04.2013 Retired

    Mail Resender



Informacje o wątku

Użytkownicy przeglądający ten wątek

Aktualnie 1 użytkownik(ów) przegląda ten wątek. (0 zarejestrowany(ch) oraz 1 gości)

Podobne wątki

  1. The Girl with the Dragon Tattoo [2011][DVDScr][AC3][ENG][Napisy PL]
    Przez akira5 w dziale HQ (High Quality - Wysoka Jakość)
    Odpowiedzi: 6
    Ostatni post / autor: 30-01-2012, 22:18
  2. The Dragon Pearl [2011][DVDScr][AC3][ENG]
    Przez adam12 w dziale HQ (High Quality - Wysoka Jakość)
    Odpowiedzi: 2
    Ostatni post / autor: 20-03-2011, 18:52

Uprawnienia umieszczania postów

  • Nie możesz zakładać nowych tematów
  • Nie możesz pisać wiadomości
  • Nie możesz dodawać załączników
  • Nie możesz edytować swoich postów
  •