Aktualizacje seriali
 



Ogłoszenia
UFS - dotacje
Dotacje SMS
Jak korzystać z forumowej szukajki



Pokaż wyniki od 1 do 4 z 4

Wątek: Rabbit Hole [2010][R5][AC3][ENG]

  1. #1
    Full Member
     Informacje : 
    Dołączył
    Aug 2009
    Posty
    19
     Statystyki uploadów : 
    Filmy
    6
     Łączny upload : 
    P2M UP
    10.5 GB
     Zapostowane konta : 
    Total CA
    80
     Podziękowania : 
    Podziękował: 9
    Thanked 1 Time in 1 Post
    Deksio jest nieaktywny

    mh Rabbit Hole [2010][R5][AC3][ENG]

    The Rabbit Hole



    Produkcja:
    Gatunek: Dramat
    Data Premiery: kino (Świat): 13 września 2010, kino (Polska): 8 kwietnia 2011
    Reżyseria: John Cameron Mitchell
    Scenariusz: David Lindsay-Abaire
    Muzyka: Anton Sanko
    Zdjęcia: Frank G. DeMarco
    Czas trwania: 1h 27mn
    Ocena: 7,72/10 (ocena z dnia 01.03.2011)



    Historia kobiety, która po dramatycznym przeżyciu próbuje odnaleźć się na krawędzi dwóch światów. Niezrozumiana przez twardo stąpającego po ziemi męża, znajduje pocieszenie w przyjaźni z tajemniczym młodzieńcem, który kiedyś przyczynił się do jej kłopotów. Chłopak oczaruje ją niezwykłą wizją rzeczywistości, która pozwoli bohaterce pogodzić się z przewrotnym losem i odnaleźć upragnioną drogę do szczęścia.



    obsada: Nicole Kidman - Becca
    Aaron Eckhart - Howie
    Dianne Wiest - Nat
    Sandra Oh - Gaby
    Jon Tenney - Rick
    Mike Doyle - Craig
    Giancarlo Esposito - Auggie
    Tammy Blanchard - Izzy
    Miles Teller - Jason
    Patricia Kalember - Peg
    Julie Lauren - Debbie
    Phoenix List - Danny Corbett
    Ursula Parker - Lilly
    Sandi Carroll - Abby
    Jay Wilkison - Gary









    Plik:Complete name : Rabbit.Hole.2010.R5.XVID.AC3-5.1.HQ.Hive-CM8.avi Format : AVI Format/Info : Audio Video Interleave File size : 1.38 GiB Duration : 1h 27mn Overall bit rate : 2 256 Kbps Writing application : Nandub v1.0rc2 Writing library : Nandub build 1853/release


    Video:Video ID : 0 Format : MPEG-4 Visual Format profile : Advanced Simple@L5 Format settings, BVOP : Yes Format settings, QPel : Yes Format settings, GMC : No warppoints Format settings, Matrix : Default (H.263) Muxing mode : Packed bitstream Codec ID : XVID Codec ID/Hint : XviD Duration : 1h 27mn Bit rate : 1 799 Kbps Width : 720 pixels Height : 400 pixels Display aspect ratio : 16:9 Frame rate : 25.000 fps Color space : YUV Chroma subsampling : 4:2:0 Bit depth : 8 bits Scan type : Progressive Bits/(Pixel*Frame) : 0.250 Stream size : 1.10 GiB (80%) Writing library : XviD 1.2.1 (UTC 2008-12-04)


    Audio:ID : 1 Format : AC-3 Format/Info : Audio Coding 3 Mode extension : CM (complete main) Codec ID : 2000 Duration : 1h 27mn Bit rate mode : Constant Bit rate : 448 Kbps Channel(s) : 6 channels Channel positions : Front: L C R, Side: L R, LFE Sampling rate : 48.0 KHz Bit depth : 16 bits Stream size : 280 MiB (20%) Alignment : Split accross interleaves Interleave, duration : 40 ms (1.00 video frame) Interleave, preload duration : 500 ms



    Nazwa pliku:Rabbit.Hole.2010.R5.XVID.AC3-5.1.HQ.Hive-CM8 Deksio for www.ufs.pl .rar
    Ilość plików na koncie:100/100/1
    Rozmiar segmentu:7Mb
    Wielkość uploadu:1.41
    Ilość mirrorów:8/8/3
    Hasło do scalenia: www.ufs.pl

    Masz problem z programem Moorhunt? Zajrzyj do działu Poradniki & FAQ tego programu.
    Zalecamy pobieranie za pomocą MailShare







    Przepraszamy, ale nie możesz zobaczyć tego tematu. Musisz sie Zarejestrować
    albo Zalogować

    Ostatnio edytowane przez Freddy ; 01-03-2011 o 07:40

  2.    Sponsored Links




  3. #2
    Retired Awatar Freddy
     Informacje : 
    Dołączył
    Nov 2007
    Skąd
    Zasiedmiogórogrodzie
    Posty
    3,804
     Statystyki uploadów : 
    Filmy
    179
    Gry
    159
    Programy
    5
    Seriale
    143
    Muzyka
    26
    Porno
    52
    Inne
    4
    Małe upy
    3
     Łączny upload : 
    P2M UP
    1538.4 GB
     Zapostowane konta : 
    Total CA
    9305
     Podziękowania : 
    Podziękował: 243
    Doceniono: 546 razy w 239 postach
    Freddy jest nieaktywny

    Domyślnie

    niezatwierdzone
    Ostatnio edytowane przez Freddy ; 01-03-2011 o 07:40



    ----


    ----


    100% moich uploadów spakowanych w rarze zawiera dane naprawcze.
    ----

  4. #3
    Maclav
    Guest
     Podziękowania : 

    Domyślnie

    Zacina się już na 1parcie i 8 segmencie !

  5. #4
    Full Member
     Informacje : 
    Dołączył
    Nov 2007
    Posty
    259
     Podziękowania : 
    Podziękował: 255
    Doceniono: 0 razy w 0 postach
    bartolinio jest nieaktywny

    Domyślnie

    potwierdzam... upload się do niczego nie nadaje, no może co najwyżej do usunięcia ;)

Informacje o wątku

Użytkownicy przeglądający ten wątek

Aktualnie 1 użytkownik(ów) przegląda ten wątek. (0 zarejestrowany(ch) oraz 1 gości)

Podobne wątki

  1. 0.7GB Rabbit Hole [2010][DVDRip][ENG]
    Przez Yaro w dziale HQ (High Quality - Wysoka Jakość)
    Odpowiedzi: 1
    Ostatni post / autor: 09-04-2011, 18:43

Uprawnienia umieszczania postów

  • Nie możesz zakładać nowych tematów
  • Nie możesz pisać wiadomości
  • Nie możesz dodawać załączników
  • Nie możesz edytować swoich postów
  •