Aktualizacje seriali
 



Ogłoszenia
UFS - dotacje
Dotacje SMS
Jak korzystać z forumowej szukajki



Pokaż wyniki od 1 do 3 z 3

Wątek: Kray [2010][DVDRip][AC3][RUS][Napisy PL]

  1. #1
    SuperVIP Awatar adam12
     Informacje : 
    Dołączył
    Jul 2007
    Posty
    1,586
     Statystyki uploadów : 
    Filmy
    550
    Gry
    1
    Seriale
    4
    Muzyka
    86
    Inne
    4
     Łączny upload : 
    P2M UP
    1797.55 GB
     Zapostowane konta : 
    Total CA
    2395
     Podziękowania : 
    Podziękował: 116
    Doceniono: 371 razy w 195 postach
    adam12 jest nieaktywny

    mh Kray [2010][DVDRip][AC3][RUS][Napisy PL]

    Kray




    Tytuł: Kray / Na krańcu świata
    Produkcja: Rosja
    Gatunek: Dramat, Przygodowy, Romans
    Czas trwania: 118 minut
    Premiera: 23.09.2010 - Świat
    Reżyseria: Aleksei Uchitel
    Scenariusz: Aleksandr Gonorovsky, Aleksandr Gonorovsky




    Przeplatające się wątki miłosne i epicka, wojenna opowieść przeniesiona przez wybitnego reżysera prosto na
    postapokaliptyczne terytorium radzieckiego Kraju.
    Działania wojenne co prawda ustały, ale życie codzienne to ciągła walka o przetrwanie w powojennym obozie pracy,
    gdzie jeśli chcesz przeżyć, musisz przysiąc wierność maszynie – zardzewiałemu, monstrualnemu parowozowi,
    mknącemu przez syberyjskie pustkowia.
    Z wybitną rolą Vladimira Mashkova



    Vladas Bagdonas
    Aleksandr Bashirov
    Semyon Belotserkovskiy
    Armen Dzhigarkhanyan
    Sergey Garmash...Fishman
    Aleksei Gorbunov
    Vyacheslav Krikunov
    Vladimir Mashkov...Ignat
    Yulia Peresild...Sofia
    Aleksei Poluyan
    Yuri Stepanov
    Anjorka Strechel...Elsa
    Anna Ukolova











    Video

    ID : 0
    Format : MPEG-4 Visual
    Format profile : Advanced Simple@L5
    Format settings, BVOP : Yes
    Format settings, QPel : No
    Format settings, GMC : No warppoints
    Format settings, Matrix : Default (H.263)
    Codec ID : XVID
    Codec ID/Hint : XviD
    Duration : 1h 58mn
    Bit rate : 1 193 Kbps
    Width : 624 pixels
    Height : 352 pixels
    Display aspect ratio : 16:9
    Frame rate : 25.000 fps
    Color space : YUV
    Chroma subsampling : 4:2:0
    Bit depth : 8 bits
    Scan type : Progressive
    Bits/(Pixel*Frame) : 0.217
    Stream size : 1 012 MiB (72%)
    Writing library : XviD 1.2.1 (UTC 2008-12-04)

    Audio:

    ID : 1
    Format : AC-3
    Format/Info : Audio Coding 3
    Mode extension : CM (complete main)
    Codec ID : 2000
    Duration : 1h 58mn
    Bit rate mode : Constant
    Bit rate : 448 Kbps
    Channel(s) : 6 channels
    Channel positions : Front: L C R, Side: L R, LFE
    Sampling rate : 48.0 KHz
    Bit depth : 16 bits
    Stream size : 380 MiB (27%)
    Alignment : Split accross interleaves
    Interleave, duration : 40 ms (1.00 video frame)
    Interleave, preload duration : 500 ms



    Nazwa pliku: Kray.2010.SubPL.DVDRip.XviD.adam12 _for_ufs_pl.part1.rar
    Rozmiar Pliku: 850,00 MB
    Rozmiar segmentu: 7,00 MB
    Liczba segmentów: 122
    Liczba mirrorów: 9

    Nazwa pliku: Kray.2010.SubPL.DVDRip.XviD.adam12 _for_ufs_pl.part2.rar
    Rozmiar Pliku: 690,36 MB
    Rozmiar segmentu: 7,00 MB
    Liczba segmentów: 99
    Liczba mirrorów: 9

    Hasło do scalenia: www.ufs.pl

    Masz problem z programem Moorhunt? Zajrzyj do działu Poradniki & FAQ tego programu.
    Zalecamy pobieranie za pomocą MailShare







    Przepraszamy, ale nie możesz zobaczyć tego tematu. Musisz sie Zarejestrować
    albo Zalogować

    Upload zawiera 10% danych naprawczych!
    Jak korzystać z danych naprawczych? Tutaj znajdziesz poradnik!

  2.    Sponsored Links




  3. #2
    Uwaga k0 bieta Awatar Silka
     Informacje : 
    Dołączył
    Mar 2008
    Skąd
    śląsk
    Posty
    2,253
     Statystyki uploadów : 
    Filmy
    51
    Gry
    9
    Programy
    7
    Seriale
    156
    Muzyka
    139
    Inne
    1
    Małe upy
    8
     Łączny upload : 
    P2M UP
    271.3 GB
     Zapostowane konta : 
    Total CA
    495
     Podziękowania : 
    Podziękował: 14
    Doceniono: 184 razy w 68 postach
    Silka jest nieaktywny

    Domyślnie

    niezatwierdzone
    Ostatnio edytowane przez Silka ; 22-01-2011 o 21:19




    "...Jeśli któregoś dnia, ktoś zarzuci Ci, że Twoja praca nie jest profesjonalna, powiedz sobie, że Arkę Noego zbudowali amatorzy a Titanic'a profesjonaliści..."



    Trial -> 31.01.10 Uploader -> 14.09.10 Elita -> 6.11.10 Moderator -> 11.06.12 Retired -> 11.11.12 Elita ->21.04.2013 Retired

    Mail Resender



  4. #3
    Gdzie są pieniądze za las?! Awatar Stachu
     Informacje : 
    Dołączył
    Oct 2007
    Skąd
    Köln
    Posty
    9,239
     Statystyki uploadów : 
    Filmy
    892
    Gry
    597
    Programy
    14
    Seriale
    297
    Muzyka
    87
    Porno
    69
    Inne
    66
    Małe upy
    12
     Łączny upload : 
    P2M UP
    8184.15 GB
     Zapostowane konta : 
    Total CA
    14861
     Podziękowania : 
    Podziękował: 248
    Doceniono: 36,199 razy w 1,147 postach
     Total HTTP Upload : 
    HTTP UP: 0.7 GB
    Stachu jest nieaktywny

    Domyślnie

    Upload sprawny / / Sprawdzony na zgłoszenie
    Member -> Full Member -> UFS Trial -> UFS Uploader -> UFS Elite -> Moderator -> UFS Elite -> Super Vip -> Elite Kreator -> Elite Uploader -> Super Vip -> Elite Uploader -> Super Vip
    Intel Core i5 2500 3.3GHz
    SilentiumPC
    Asus H61
    Kingston HyperX 16GB DDR3 1600MHz
    Seagate 500GB
    Toshiba 320GB
    Seagate Desktop HDD 2TB
    GoodRam SSD 120GB
    Gigabyte GeForce 1060 6GB XTreme OC
    Nagrywarka Asus
    Thermaltake Modular SE 530W
    Zalman 3 Plus White



Informacje o wątku

Użytkownicy przeglądający ten wątek

Aktualnie 1 użytkownik(ów) przegląda ten wątek. (0 zarejestrowany(ch) oraz 1 gości)

Podobne wątki

  1. Kray [2010][BDRip][AC3][RUS][Napisy PL]
    Przez Santi w dziale HQ (High Quality - Wysoka Jakość)
    Odpowiedzi: 3
    Ostatni post / autor: 01-07-2011, 21:29
  2. Su Qi-Er [2010][DVDRip][AC3][CHN][Napisy PL]
    Przez Only one w dziale HQ (High Quality - Wysoka Jakość)
    Odpowiedzi: 2
    Ostatni post / autor: 08-11-2010, 13:28

Uprawnienia umieszczania postów

  • Nie możesz zakładać nowych tematów
  • Nie możesz pisać wiadomości
  • Nie możesz dodawać załączników
  • Nie możesz edytować swoich postów
  •