Aktualizacje seriali
 



Ogłoszenia
UFS - dotacje
Dotacje SMS
Jak korzystać z forumowej szukajki



Pokaż wyniki od 1 do 2 z 2

Wątek: True Grit [2010][DVDScr][ENG][AC3]

  1. #1
    CHELSEA LONDYN & BROOKLYN NETS <3 Awatar Pumbek
     Informacje : 
    Dołączył
    Jan 2007
    Skąd
    ZCH
    Posty
    4,772
     Statystyki uploadów : 
    Filmy
    576
    Gry
    201
    Programy
    18
    Seriale
    167
    Muzyka
    72
    Porno
    15
    Inne
    7
    Małe upy
    7
     Łączny upload : 
    P2M UP
    4833 GB
     Zapostowane konta : 
    Total CA
    15070
     Podziękowania : 
    Podziękował: 817
    Doceniono: 27,045 razy w 545 postach
    Pumbek jest nieaktywny

    Resender True Grit [2010][DVDScr][ENG][AC3]

    True Grit



    Produkcja: USA
    Gatunek: Dramat | Western
    Data Premiery: 2011-02-04 (Polska), 2010-12-25 (Świat)
    Reżyseria: Ethan Coen, Joel Coen
    Scenariusz: Joel Coen, Ethan Coen
    Zdjęcia:
    Czas trwania: Dodatkowe informacje



    Ojciec czternastoletniej Mattie Ross (Hailee Steinfeld) zostaje zabity przez Toma Chaneya (Josh Brolin). Dziewczyna jest zdeterminowana i pragnie doprowadzić mordercę przed wymiar sprawiedliwości. Dołącza więc do szeryfa Roostera Cogburna (Jeff Bridges), który prowadzi pościg. Muszą się śpieszyć w poszukiwaniach, ponieważ zabójca ukrywa się na terytorium Indian, a ściga go jeszcze łowca nagród zwany LeBoeuf (Matt Damon), który chce go sprowadzić do Teksasu by ten znów zabijał. (ferhin2)



    Jeff Bridges - Rooster Cogburn
    Hailee Steinfeld - Mattie Ross
    Matt Damon - LaBoeuf
    Josh Brolin - Tom Chaney
    Barry Pepper - Lucky Ned Pepper
    Domhnall Gleeson - Moon
    Elizabeth Marvel - Dorosła Mattie Ross
    Nicholas Sadler - Sullivan



    Plik:Video
    ID : 0
    Format : MPEG-4 Visual
    Format profile : Advanced Simple@L5
    Format settings, BVOP : Yes
    Format settings, QPel : No
    Format settings, GMC : No warppoints
    Format settings, Matrix : Default (H.263)
    Muxing mode : Packed bitstream
    Codec ID : XVID
    Codec ID/Hint : XviD
    Duration : 1h 50mn
    Bit rate : 1 560 Kbps
    Video:Width : 720 pixels
    Height : 304 pixels
    Display aspect ratio : 2.35:1
    Frame rate : 23.976 fps
    Color space : YUV
    Chroma subsampling : 4:2:0
    Bit depth : 8 bits
    Scan type : Progressive
    Bits/(Pixel*Frame) : 0.297
    Stream size : 1.20 GiB (89%)
    Writing library : XviD 1.1.2 (UTC 2006-11-01)

    Audio
    ID : 1
    Format : MPEG Audio
    Format version : Version 1
    Format profile : Layer 3
    Audio:Codec ID : 55
    Codec ID/Hint : MP3
    Duration : 1h 50mn
    Bit rate mode : Constant
    Bit rate : 192 Kbps
    Channel(s) : 2 channels
    Sampling rate : 44.1 KHz
    Stream size : 151 MiB (11%)
    Alignment : Split accross interleaves
    Interleave, duration : 42 ms (1.00 video frame)
    Interleave, preload duration : 500 ms











    Nazwa pliku: New Folder.part.rar

    Ilość segmentów: 69+136
    Rozmiar segmentu: 7,63MB
    Wielkość uploadu: 1.4GB
    Ilość mirrorów: 9+6
    Hasło do scalenia: www.ufs.pl







    Przepraszamy, ale nie możesz zobaczyć tego tematu. Musisz sie Zarejestrować
    albo Zalogować

    Upload zawiera 10% danych naprawczych!
    Jak korzystać z danych naprawczych? Tutaj znajdziesz poradnik!
    ..::Member -> Full Member -> UFS Trial -> UFS Kreator -> Full Member -> UFS Uploader -> Super Uploader -> UFS Elite -> SUPER VIP -> UFS Elite -> Moderator -> Super Moderator -> UFS MASTER ->Super Moderator ->Retired -> Super Moderator -> Retired ::..

  2. Liczba osób które doceniły autora: 1


  3.    Sponsored Links




  4. #2
    Gdzie są pieniądze za las?! Awatar Stachu
     Informacje : 
    Dołączył
    Oct 2007
    Skąd
    Köln
    Posty
    9,239
     Statystyki uploadów : 
    Filmy
    892
    Gry
    597
    Programy
    14
    Seriale
    297
    Muzyka
    87
    Porno
    69
    Inne
    66
    Małe upy
    12
     Łączny upload : 
    P2M UP
    8184.15 GB
     Zapostowane konta : 
    Total CA
    14861
     Podziękowania : 
    Podziękował: 248
    Doceniono: 36,195 razy w 1,147 postach
     Total HTTP Upload : 
    HTTP UP: 0.7 GB
    Stachu jest nieaktywny

    Domyślnie

    niezatwierdzone
    Ostatnio edytowane przez Stachu ; 07-01-2011 o 23:40
    Member -> Full Member -> UFS Trial -> UFS Uploader -> UFS Elite -> Moderator -> UFS Elite -> Super Vip -> Elite Kreator -> Elite Uploader -> Super Vip -> Elite Uploader -> Super Vip
    Intel Core i5 2500 3.3GHz
    SilentiumPC
    Asus H61
    Kingston HyperX 16GB DDR3 1600MHz
    Seagate 500GB
    Toshiba 320GB
    Seagate Desktop HDD 2TB
    GoodRam SSD 120GB
    Gigabyte GeForce 1060 6GB XTreme OC
    Nagrywarka Asus
    Thermaltake Modular SE 530W
    Zalman 3 Plus White



Informacje o wątku

Użytkownicy przeglądający ten wątek

Aktualnie 1 użytkownik(ów) przegląda ten wątek. (0 zarejestrowany(ch) oraz 1 gości)

Podobne wątki

  1. True Legend [2010][DVDRip][ENG][Napisy PL]
    Przez bkco w dziale HQ (High Quality - Wysoka Jakość)
    Odpowiedzi: 1
    Ostatni post / autor: 11-11-2010, 21:15

Uprawnienia umieszczania postów

  • Nie możesz zakładać nowych tematów
  • Nie możesz pisać wiadomości
  • Nie możesz dodawać załączników
  • Nie możesz edytować swoich postów
  •