Aktualizacje seriali
 



Ogłoszenia
UFS - dotacje
Dotacje SMS
Jak korzystać z forumowej szukajki



Pokaż wyniki od 1 do 4 z 4

Wątek: Tomorrow When The War Began [2010][DVDRip][AC3][ENG]

  1. #1
    SuperVIP Awatar adam12
     Informacje : 
    Dołączył
    Jul 2007
    Posty
    1,586
     Statystyki uploadów : 
    Filmy
    550
    Gry
    1
    Seriale
    4
    Muzyka
    86
    Inne
    4
     Łączny upload : 
    P2M UP
    1797.55 GB
     Zapostowane konta : 
    Total CA
    2395
     Podziękowania : 
    Podziękował: 116
    Doceniono: 371 razy w 195 postach
    adam12 jest nieaktywny

    mh Tomorrow When The War Began [2010][DVDRip][AC3][ENG]

    Tomorrow When The War Began




    Reżyseria: Stuart Beattie
    Scenariusz: Stuart Beattie
    Zdjęcia: Ben Nott
    Na podstawie: John Marsden (powieść)
    Premiera: (Świat) 2010-08-08
    Produkcja: Australia, USA
    Gatunek: Dramat, Przygodowy, Akcja




    Oparty na bestsellerowej powieści Johna Marsdena film opowiada o ośmiu australijskich nastolatkach,
    którzy wybieraja sie na kilkudniowy kemping.
    W trakcie wycieczki blizej nieokreślony azjatycki kraj dokonuje inwazji na Australię.
    Po powrocie do ojczyzny młodzi ludzie muszą stawić czoło nowej sytuacji i walczyć o swoje życie.



    Caitlin Stasey ... Ellie Linton
    Rachel Hurd-Wood ... Corrie Mackenzie
    Lincoln Lewis ... Kevin Holmes
    Deniz Akdeniz ... Homer Yannos
    Phoebe Tonkin ... Fiona Maxwell
    Chris Pang ... Lee Takkam
    Ashleigh Cummings ... Robyn Mathers
    Andrew Ryan ... Chris Lang (as Andy Ryan)
    Colin Friels ... Dr. Clement








    Plik:

    Tomorrow When The War Began 2010 DVDRip XVID AC3 HQ Hive-CM8

    Video:

    ID : 0
    Format : MPEG-4 Visual
    Format profile : Advanced Simple@L5
    Format settings, BVOP : Yes
    Format settings, QPel : Yes
    Format settings, GMC : No warppoints
    Format settings, Matrix : Default (H.263)
    Muxing mode : Packed bitstream
    Codec ID : XVID
    Codec ID/Hint : XviD
    Duration : 1h 39mn
    Bit rate : 1 800 Kbps
    Width : 720 pixels
    Height : 304 pixels
    Display aspect ratio : 2.35:1
    Frame rate : 25.000 fps
    Color space : YUV
    Chroma subsampling : 4:2:0
    Bit depth : 8 bits
    Scan type : Progressive
    Bits/(Pixel*Frame) : 0.329
    Stream size : 1.25 GiB (80%)
    Writing library : XviD 1.2.1 (UTC 2008-12-04)

    Audio:

    ID : 1
    Format : AC-3
    Format/Info : Audio Coding 3
    Mode extension : CM (complete main)
    Codec ID : 2000
    Duration : 1h 39mn
    Bit rate mode : Constant
    Bit rate : 448 Kbps
    Channel(s) : 6 channels
    Channel positions : Front: L C R, Side: L R, LFE
    Sampling rate : 48.0 KHz
    Bit depth : 16 bits
    Stream size : 319 MiB (20%)
    Alignment : Split accross interleaves
    Interleave, duration : 40 ms (1.00 video frame)
    Interleave, preload duration : 500 ms



    Nazwa pliku: Tomorrow When The War Began 2010 DVDRip.adam12 _for_ufs_pl.part1.rar
    Rozmiar Pliku: 900,00 MB
    Rozmiar segmentu: 7,00 MB
    Liczba segmentów: 129
    Liczba mirrorów: 9

    Nazwa pliku: Tomorrow When The War Began 2010 DVDRip.adam12 _for_ufs_pl.part2.rar
    Rozmiar Pliku: 868,62 MB
    Rozmiar segmentu: 7,00 MB
    Liczba segmentów: 125
    Liczba mirrorów: 9

    Hasło do scalenia: www.ufs.pl

    Masz problem z programem Moorhunt? Zajrzyj do działu Poradniki & FAQ tego programu.
    Zalecamy pobieranie za pomocą MailShare







    Przepraszamy, ale nie możesz zobaczyć tego tematu. Musisz sie Zarejestrować
    albo Zalogować

    Upload zawiera 10% danych naprawczych!
    Jak korzystać z danych naprawczych? Tutaj znajdziesz poradnik!

  2.    Sponsored Links




  3. #2
    Gdzie są pieniądze za las?! Awatar Stachu
     Informacje : 
    Dołączył
    Oct 2007
    Skąd
    Köln
    Posty
    9,239
     Statystyki uploadów : 
    Filmy
    892
    Gry
    597
    Programy
    14
    Seriale
    297
    Muzyka
    87
    Porno
    69
    Inne
    66
    Małe upy
    12
     Łączny upload : 
    P2M UP
    8184.15 GB
     Zapostowane konta : 
    Total CA
    14861
     Podziękowania : 
    Podziękował: 248
    Doceniono: 36,199 razy w 1,147 postach
     Total HTTP Upload : 
    HTTP UP: 0.7 GB
    Stachu jest nieaktywny

    Domyślnie

    niezatwierdzone
    Member -> Full Member -> UFS Trial -> UFS Uploader -> UFS Elite -> Moderator -> UFS Elite -> Super Vip -> Elite Kreator -> Elite Uploader -> Super Vip -> Elite Uploader -> Super Vip
    Intel Core i5 2500 3.3GHz
    SilentiumPC
    Asus H61
    Kingston HyperX 16GB DDR3 1600MHz
    Seagate 500GB
    Toshiba 320GB
    Seagate Desktop HDD 2TB
    GoodRam SSD 120GB
    Gigabyte GeForce 1060 6GB XTreme OC
    Nagrywarka Asus
    Thermaltake Modular SE 530W
    Zalman 3 Plus White



  4. #3
    Full Member Awatar palkarz_85
     Informacje : 
    Dołączył
    Feb 2007
    Posty
    90
     Podziękowania : 
    Podziękował: 82
    Doceniono: 0 razy w 0 postach
    palkarz_85 jest nieaktywny

    Domyślnie

    Thx :)

  5. #4
    marcinmateusz
    Guest
     Podziękowania : 

    Domyślnie

    a napisów brak ;(

    Ale thx za wstawkę, film działa 100% ;)

Informacje o wątku

Użytkownicy przeglądający ten wątek

Aktualnie 1 użytkownik(ów) przegląda ten wątek. (0 zarejestrowany(ch) oraz 1 gości)

Podobne wątki

  1. Tomorrow Never Dies [1997] [DVDRip][Eng]
    Przez vip11 w dziale HQ (High Quality - Wysoka Jakość)
    Odpowiedzi: 1
    Ostatni post / autor: 21-03-2010, 15:13

Uprawnienia umieszczania postów

  • Nie możesz zakładać nowych tematów
  • Nie możesz pisać wiadomości
  • Nie możesz dodawać załączników
  • Nie możesz edytować swoich postów
  •