Aktualizacje seriali
 



Ogłoszenia
UFS - dotacje
Dotacje SMS
Jak korzystać z forumowej szukajki



Pokaż wyniki od 1 do 2 z 2

Wątek: Echelon Conspiracy [2009] [ENG] [DVDRip]

  1. #1
    Freaking Elite Awatar JankieL
     Informacje : 
    Dołączył
    Jul 2008
    Skąd
    się wziąłem?
    Posty
    4,465
     Statystyki uploadów : 
    Filmy
    567
    Gry
    63
    Programy
    41
    Seriale
    228
    Muzyka
    345
    Porno
    1485
    Inne
    12
    Małe upy
    1
     Łączny upload : 
    P2M UP
    2731 GB
     Zapostowane konta : 
    Total CA
    1170
     Podziękowania : 
    Podziękował: 194
    Doceniono: 29,962 razy w 1,049 postach
    JankieL jest nieaktywny

    Echelon Conspiracy [2009] [ENG] [DVDRip]


    Echelon Conspiracy




    Produkcja: USA
    Gatunek: Thriller, Akcja
    Data Premiery: 2009-02-27 (Świat)
    Reżyseria: Greg Marcks
    Scenariusz: Kevin Elders , Michael Nitsberg
    Muzyka: Bobby Tahouri
    Zdjecia: Lorenzo Senatore
    Czas trwania: 105



    Bohaterem filmu jest Max, który zajmuje się zakładaniem systemów alarmowych. Aby zrealizować najnowsze zlecenie udaje się do Bangkoku. Gdy dociera do swojego hotelu zostaje mu wręczona nieoczekiwana przesyłka. Okazuje się, że w paczcie znajduje się nowoczesny telefon komórkowy, który nakazuje swojemu posiadaczowi wykonywanie najróżniejszych czynności.


    Shane West : Max Peterson
    Ving Rhames : Agent Dave Grant
    Edward Burns : John Reed
    Yuriy Kutsenko : Rosyjski generał
    Sergey Gubanov : Yuri Malanin
    Martin Sheen : Raymond Burke
    Steven Elder : Charles
    Sandra De Sousa : Female Casino Tech
    Agnes Bruckner : Kamila
    Vernon Dobtcheff : Antonin Meuller
    Todd Jensen : Agent Fletcher
    Trevor White : Paul Spencer
    Ilan Goodman : Dennis
    Tamara Feldman : Kamila
    Vee Vimolmal : Recepcjonistka







    Format : AVI
    Format/Info : Audio Video Interleave
    File size : 701 MiB
    Duration : 1h 40mn
    Overall bit rate : 973 Kbps
    Writing application : Noir's Hyper HD Xvid
    Writing library : VirtualDub build 31536/release
    Original source form : Noir's Shit
    Copyright : By Noir

    Video
    Format : MPEG-4 Visual
    Format profile : Streaming Video@L1
    Format settings, BVOP : Yes
    Format settings, QPel : No
    Format settings, GMC : No warppoints
    Format settings, Matrix : Default
    Muxing mode : Packed bitstream
    Codec ID : XVID
    Codec ID/Hint : XviD
    Duration : 1h 40mn
    Bit rate : 852 Kbps
    Width : 640 pixels
    Height : 272 pixels
    Display aspect ratio : 2.35
    Frame rate : 23.976 fps
    Resolution : 24 bits
    Colorimetry : 4:2:0
    Scan type : Progressive
    Bits/(Pixel*Frame) : 0.204
    Stream size : 614 MiB (88%)
    Writing library : XviD 50

    Audio
    Format : MPEG Audio
    Format version : Version 1
    Format profile : Layer 3
    Codec ID : 55
    Codec ID/Hint : MP3
    Duration : 1h 40mn
    Bit rate mode : Variable
    Bit rate : 108 Kbps
    Channel(s) : 2 channels
    Sampling rate : 48.0 KHz
    Resolution : 16 bits
    Stream size : 78.1 MiB (11%)
    Alignment : Aligned on interleaves
    Interleave, duration : 24 ms (0.58 video frame)
    Interleave, preload duration : 442 ms


    Liczba mirrorów: 10
    Ilość plików na koncie: 93+napisyPL
    Rozmiar segmentu: 7,63 MB
    Wielkość uploadu: 701 MB
    Hasło do scalenia: www.ufs.pl







    Przepraszamy, ale nie możesz zobaczyć tego tematu. Musisz sie Zarejestrować
    albo Zalogować

    RAG FilmWeb v1.1
    Members (12.07.2008)
    UFS Trial (09.09.2008)
    UFS Uploader (21.09.2008)
    UFS Elite (22.02.2009)
    VIP (30.06.2009)
    UFS Elite (18.03.2010)
    Moderator (29.05.2010)
    Retired (25.09.2010)
    UFS Elite (24.04.2012)
    UFS Elite (04.10.2012)
    UFS Elite (19.11.2012)
    Retired (10.03.2013)
    UFS Elite (13.03.2013)
    Retired (26.07.2013)
    UFS Elite (02.02.2014)
    Retired (27.04.2014)

  2.    Sponsored Links




  3. #2
    Retired Awatar depciak
     Informacje : 
    Dołączył
    Sep 2007
    Skąd
    Rzeszów
    Posty
    3,836
     Statystyki uploadów : 
    Filmy
    94
    Gry
    69
    Seriale
    51
    Muzyka
    4
    Porno
    6
    Małe upy
    2
     Łączny upload : 
    P2M UP
    1519.25 GB
     Zapostowane konta : 
    Total CA
    21035
     Podziękowania : 
    Podziękował: 3
    Doceniono: 154 razy w 67 postach
    depciak jest nieaktywny

    Domyślnie


Informacje o wątku

Użytkownicy przeglądający ten wątek

Aktualnie 1 użytkownik(ów) przegląda ten wątek. (0 zarejestrowany(ch) oraz 1 gości)

Podobne wątki

  1. 0.7GB Echelon Conspiracy [2009][R5][ENG]
    Przez rafalklimsiak w dziale HQ (High Quality - Wysoka Jakość)
    Odpowiedzi: 1
    Ostatni post / autor: 15-05-2009, 01:21

Uprawnienia umieszczania postów

  • Nie możesz zakładać nowych tematów
  • Nie możesz pisać wiadomości
  • Nie możesz dodawać załączników
  • Nie możesz edytować swoich postów
  •